<?xml version="1.0" standalone="no"?>
<!DOCTYPE svg PUBLIC "-//W3C//DTD SVG 1.1//EN" "http://www.w3.org/Graphics/SVG/1.1/DTD/svg11.dtd" >
<svg xmlns="http://www.w3.org/2000/svg" xmlns:xlink="http://www.w3.org/1999/xlink" version="1.1">
<metadata>
Created by FontForge 20201107 at Sun Mar 16 22:04:56 2014
 By 
Version 2. Walburn is a trademark of Shinn Type Foundry. Copyright  2002 by Nick Shinn. Published 2002 by Shinn Type Foundry.
</metadata>
<defs>
<font id="WalburnW01-Black" horiz-adv-x="190" >
  <font-face 
    font-family="WalburnW01-Black"
    font-weight="900"
    font-stretch="normal"
    units-per-em="1000"
    panose-1="0 0 9 0 0 0 0 0 0 0"
    ascent="800"
    descent="-200"
    x-height="483"
    cap-height="707"
    bbox="-89 -263 1009 927"
    underline-thickness="50"
    underline-position="-198"
    unicode-range="U+0002-2122"
  />
<missing-glyph 
 />
    <glyph glyph-name=".notdef" 
 />
    <glyph glyph-name=".null" horiz-adv-x="0" 
 />
    <glyph glyph-name="uni000D" unicode="&#xd;" 
 />
    <glyph glyph-name="uni0002" horiz-adv-x="0" 
 />
    <glyph glyph-name="uni0009" unicode="&#x9;" 
 />
    <glyph glyph-name="uni000A" unicode="&#xa;" horiz-adv-x="0" 
 />
    <glyph glyph-name="space" unicode=" " 
 />
    <glyph glyph-name="exclam" unicode="!" horiz-adv-x="285" 
d="M236 623q0 -25 -20 -141q-9 -41 -29 -136q-22 -106 -23 -157q-8 2 -21 2q-15 0 -24 -3q-1 47 -22 149q-12 55 -30 145q-18 109 -18 139q0 46 29 72q25 24 63 24t66.5 -25t28.5 -69zM221 71q0 -33 -24 -57t-58 -24t-57.5 24t-23.5 57t23.5 56.5t57.5 23.5t58 -23.5
t24 -56.5z" />
    <glyph glyph-name="quotedbl" unicode="&#x22;" horiz-adv-x="359" 
d="M332 655q0 -10 -2 -19l-49 -221h-24l-48 217q-2 9 -2 23q0 32 19 51q16 17 42 17q25 0 44.5 -18.5t19.5 -49.5zM153 655q0 -11 -2 -20l-49 -220h-24l-48 217q-3 14 -3 23q0 32 18 50t43 18q26 0 45.5 -18t19.5 -50z" />
    <glyph glyph-name="numbersign" unicode="#" horiz-adv-x="538" 
d="M525 516q-6 -18 -6 -32v-15q-48 7 -125 7q-18 0 -20 -16l-10 -88v-10q0 -5 5 -5q68 0 138 8q-6 -24 -6 -31v-1q0 -4 3 -13q-61 6 -127 6q-13 0 -15.5 -2.5t-4.5 -15.5q-9 -61 -11 -135q-18 3 -24 3q-5 0 -26 -3q14 60 25 138v8q0 6 -19 6h-80q-14 0 -17 -3t-5 -19
q-10 -76 -12 -130q-18 3 -23 3q-4 0 -25 -3q11 54 23 132q1 6 1 13q0 8 -12 8q-70 0 -134 -6q8 19 8 29q0 3 -3 15q48 -7 129 -7q13 0 15.5 3t4.5 18l9 83q1 3 1 8q0 7 -11 7q-70 0 -134 -6q7 27 7 33v4q-1 4 -1 9q82 -8 125 -8q14 0 17 4t4 18q3 51 11 153q21 -3 30 -3
q10 0 22 2q-27 -115 -27 -166q0 -8 18 -8h76q17 0 21 3.5t6 17.5q6 55 11 154q18 -3 24 -3h1q11 0 23 2q-24 -131 -24 -168q0 -7 13 -7q56 0 131 9zM338 470q0 5 -21 5h-74q-15 0 -18.5 -3t-5.5 -15l-10 -81q-1 -8 -1 -12q0 -7 17 -7h77q17 0 20.5 2.5t4.5 13.5z" />
    <glyph glyph-name="dollar" unicode="$" horiz-adv-x="454" 
d="M440 208q0 -168 -157 -211q-14 -2 -35 -9q-5 -3 -5 -10q0 -14 1 -46.5t1 -51.5q-13 5 -21 5q-6 0 -21 -5q4 52 5 105q0 1 -3 3q-8 1 -31 4q-164 21 -164 147q0 78 58 78q26 0 47.5 -20t21.5 -49q0 -3 -1 -22t-1 -22q0 -83 68 -83q4 0 4 4v214q0 25 -3.5 32t-22.5 17
q-73 40 -109 79q-52 56 -52 132q0 75 49 127q45 47 116 62q10 2 22 4l1 2q-1 5 -2 21l-2 78q18 -3 22 -3t19 3l-2 -79q0 -4 -1 -10v-7t5 -3q13 -1 42 -4q50 -7 84 -34q39 -31 39 -77q0 -65 -54 -65q-24 0 -44.5 17t-23.5 44.5t-6 55.5q-6 32 -35 32q-7 0 -7 -5l-2 -194
q0 -20 21 -31q83 -43 120 -80q59 -59 59 -145zM209 467v7q-1 6 -1 11v173q0 2 -1 3q-38 0 -61 -24.5t-23 -59.5q0 -64 66 -105q14 -9 17 -9t3 4zM344 122q0 76 -82 123q-16 9 -19 9q-2 0 -3 -7l3 -225q10 1 30 7q71 30 71 93z" />
    <glyph glyph-name="percent" unicode="%" horiz-adv-x="685" 
d="M670 195q0 -103 -47 -156q-42 -46 -109 -46q-63 0 -107 48q-51 56 -51 158q0 96 47 152q43 51 109 51q65 0 107 -47q51 -55 51 -160zM514 690q-159 -342 -296 -691q-14 4 -23 4q-11 0 -31 -5q135 289 297 691q12 -4 20 -4q10 0 33 5zM324 489q0 -103 -50 -157
q-42 -45 -106 -45t-107 48q-51 55 -51 158q0 100 50 155q43 48 106 48t106 -45q52 -56 52 -162zM555 193q0 113 -12 152q-9 30 -32 30q-22 0 -30 -31q-11 -38 -11 -145q0 -109 12 -148q9 -30 32 -30t31 28q10 34 10 144zM209 487q0 113 -11 150q-9 31 -33 31q-22 0 -31 -30
q-10 -37 -10 -145t10 -146q10 -33 34 -33q21 0 30 28q11 37 11 145z" />
    <glyph glyph-name="ampersand" unicode="&#x26;" horiz-adv-x="674" 
d="M647 172q0 -79 -51 -132q-44 -48 -97 -48q-47 0 -102 48q-9 8 -13 8q-3 0 -13 -9q-52 -47 -137 -47q-101 0 -146 44q-33 33 -52 84q-15 42 -15 76q0 128 132 212q8 5 8 10q0 3 -5 15q-29 72 -29 133q0 67 49.5 108.5t144.5 41.5q43 0 70 -27.5t27 -68.5q0 -75 -101 -142
q-9 -6 -9 -13q0 -3 2 -7q69 -147 128 -238l10 -16l5 13q26 74 26 140q0 100 -74 100q-4 0 -31 -3q2 6 2 17q0 12 -2 18q73 -8 133 -8q57 0 126 8q-2 -6 -2 -15q0 -11 3 -20q-16 2 -30 2q-39 0 -55 -21q-13 -16 -26 -67q-12 -58 -47 -172q-3 -10 -3 -17q0 -11 6 -19
q57 -76 84 -76q53 0 53 99q0 55 -25 113q20 0 33 13q23 -95 23 -137zM357 609q0 79 -46 79q-58 0 -58 -75q0 -20 29 -91q0 -1 3 -14q2 -7 6 -7q5 0 11 4q55 35 55 104zM359 76q0 3 -4 8q-2 1 -8 7q-35 43 -93 140q-64 108 -73 148q-2 7 -5 7q-1 0 -10 -6q-40 -26 -40 -74
q0 -43 28 -109q30 -69 70 -109t82 -40q27 0 48 19q5 6 5 9z" />
    <glyph glyph-name="quotesingle" unicode="'" horiz-adv-x="182" 
d="M153 655q0 -11 -2 -20l-49 -220q-8 2 -12 2q-2 0 -12 -2l-48 217q-3 14 -3 23q0 32 18 50t43 18q26 0 45.5 -18t19.5 -50z" />
    <glyph glyph-name="parenleft" unicode="(" horiz-adv-x="297" 
d="M287 -228q-12 -12 -18 -35q-110 77 -162 152q-94 136 -94 340q0 198 92 335q53 79 164 161q4 -20 18 -34q-79 -45 -122 -144q-39 -90 -39 -332q0 -145 11 -217q10 -62 36 -110q44 -81 114 -116z" />
    <glyph glyph-name="parenright" unicode=")" horiz-adv-x="297" 
d="M284 229q0 -204 -94 -340q-50 -73 -162 -152q-6 23 -18 35q71 36 114 116q27 51 36 109q10 66 10 218q0 151 -12 231q-11 74 -40 130q-38 75 -108 115q13 16 18 33q114 -86 164 -160q92 -137 92 -335z" />
    <glyph glyph-name="asterisk" unicode="*" horiz-adv-x="337" 
d="M331 474q0 -22 -12.5 -35.5t-30.5 -13.5q-31 0 -60.5 40.5t-36.5 40.5q-9 0 -9 -13q0 -5 16.5 -35.5t16.5 -51.5q0 -19 -11 -32q-13 -16 -35 -16q-47 0 -47 48q0 21 16.5 51t16.5 36q0 13 -9 13q-5 0 -9 -5q-19 -24 -37 -47q-25 -29 -51 -29q-18 0 -30.5 13.5t-12.5 35.5
q0 42 63 48q22 0 55 7q7 4 7 9q0 10 -27 10h-18q-80 0 -80 55q0 46 44 46q28 0 59 -39.5t38 -39.5q4 0 4 4t-14.5 40.5t-14.5 57.5q0 44 47 44q21 0 33.5 -13t12.5 -31q0 -20 -14.5 -55.5t-14.5 -42.5q0 -4 4 -4q7 0 38 39.5t59 39.5q44 0 44 -46q0 -55 -80 -55h-18
q-27 0 -27 -10q0 -12 31 -14q49 -3 60 -6q34 -10 34 -44z" />
    <glyph glyph-name="plus" unicode="+" horiz-adv-x="527" 
d="M518 261q-193 6 -214 6q-18 -2 -18 -16q2 -74 7 -220q-18 4 -29 4q-13 0 -31 -6q6 200 6 225q-2 10 -17 13q-40 0 -104 -3q-89 -3 -111 -4q5 13 5 28q0 12 -4 32q198 -6 214 -6q17 0 18 18l-6 219q16 -4 31 -4q8 0 29 3l-8 -220q2 -16 17 -16q4 0 215 6q-3 -24 -3 -29
q0 -4 3 -30z" />
    <glyph glyph-name="comma" unicode="," horiz-adv-x="218" 
d="M196 23q0 -85 -51 -145q-30 -36 -85 -70q-2 14 -18 30q110 62 110 154q0 7 -6 7q-2 0 -24 -10q-9 -4 -21 -4q-40 0 -62 26q-19 22 -19 54q0 36 25.5 62t65.5 26q36 0 59 -30q26 -35 26 -100z" />
    <glyph glyph-name="hyphen" unicode="-" horiz-adv-x="302" 
d="M278 235q-61 5 -118 5q-76 0 -140 -4q5 15 5 32q0 14 -4 26q59 -5 137 -5q74 0 120 5q-4 -15 -4 -30t4 -29z" />
    <glyph glyph-name="hyphen" unicode="&#x2010;" horiz-adv-x="302" 
d="M278 235q-61 5 -118 5q-76 0 -140 -4q5 15 5 32q0 14 -4 26q59 -5 137 -5q74 0 120 5q-4 -15 -4 -30t4 -29z" />
    <glyph glyph-name="period" unicode="." horiz-adv-x="213" 
d="M187 72q0 -39 -24 -60.5t-57 -21.5t-55 20q-25 23 -25 62q0 38 25 61q22 20 55 20t56 -20q25 -23 25 -61z" />
    <glyph glyph-name="slash" unicode="/" horiz-adv-x="330" 
d="M325 709q-143 -352 -256 -710q-10 3 -27 3q-19 0 -37 -4q179 465 255 709q16 -4 29 -4q18 0 36 6z" />
    <glyph glyph-name="zero" unicode="0" horiz-adv-x="533" 
d="M506 353q0 -364 -239 -364q-103 0 -166 78q-74 92 -74 275q0 182 74 276q65 81 168 81q105 0 166 -77q71 -89 71 -269zM354 351q0 255 -39 296q-20 21 -49 21q-33 0 -51 -21q-37 -44 -37 -299q0 -246 31 -297q18 -29 56 -29q37 0 56 29q33 51 33 300z" />
    <glyph glyph-name="one" unicode="1" horiz-adv-x="410" 
d="M394 0q-79 3 -162 3t-150 -3q3 9 3 17q0 9 -3 17q61 -4 51 -4q27 0 28 31q3 169 3 280v68q0 19 2 57t2 56q0 7 -3 7q-2 0 -7 -7q-23 -34 -75 -71q-7 20 -23 30q60 45 116 104q66 69 91 121q14 -2 21 -2q6 0 24 3q-5 -138 -5 -277q0 -161 7 -366q1 -34 30 -34q-11 0 50 4
q-2 -8 -2 -17t2 -17z" />
    <glyph glyph-name="two" unicode="2" horiz-adv-x="499" 
d="M493 196q-51 -109 -68 -196q-60 4 -217 4q-111 0 -187 -4l-4 25l94 102q58 64 114 139q73 97 73 227q0 86 -24 117q-21 28 -75 28q-129 0 -129 -142q0 -103 104 -182q-15 -10 -22 -36q-120 97 -120 211q0 97 60 153t160 56q203 0 203 -198q0 -72 -63 -150
q-31 -38 -134 -134q-29 -28 -76 -71l-20 -18q0 -7 49 -7h118q69 0 89 13q24 15 44 79q12 -14 31 -16z" />
    <glyph glyph-name="three" unicode="3" horiz-adv-x="475" 
d="M448 236q0 -125 -67 -188q-61 -58 -169 -58q-165 0 -195 162q20 0 42 14q6 -64 33 -94q30 -33 94 -33q51 0 76 33q34 46 34 166q0 98 -23 136q-19 30 -63 30q-32 0 -59 -23q-20 -17 -57 -66q-12 20 -27 28q125 118 192 204q13 14 13 13q-1 1 -8 1q1 0 -15 -3t-151 -3
q-20 0 -26 -15q-13 -23 -14 -53q-14 12 -36 15q39 73 65 186q68 -5 178 -5q85 0 151 5q1 -18 3 -25q-86 -87 -211 -219q-2 -1 -7 -5q1 -2 5 -4q38 14 65 14q93 0 135 -52t42 -161z" />
    <glyph glyph-name="four" unicode="4" horiz-adv-x="502" 
d="M485 -1q-69 5 -160 5q-84 0 -157 -5q3 9 3 16t-3 19q33 -3 57 -3q19 0 23 15.5t4 96.5q0 32 0 31q-2 22 -16 22q-89 3 -77 3q-70 0 -135 -4q0 23 -7 35q73 105 212 319q21 34 42 69q26 43 46 90q16 -4 42 -4t44 5q-5 -145 -5 -424v-33q0 -18 40 -18q22 0 47 6
q-4 -11 -4 -25q0 -13 4 -22q-28 3 -78 3q-9 0 -9 -23v-93q0 -34 4 -41t21 -7q24 0 61 2q-2 -8 -2 -16q0 -10 3 -19zM257 518q-7 -2 -19 -21q-65 -96 -165 -254q-1 -3 -1 -5q0 -4 14 -4q70 -2 109 -2q14 0 43 2q10 1 12 16q3 26 3 222q0 13 2 28.5t2 17.5z" />
    <glyph glyph-name="five" unicode="5" horiz-adv-x="487" 
d="M460 240q0 -250 -245 -250q-167 0 -198 203q22 1 42 14q8 -81 33 -119q34 -52 110 -52q54 0 76 32q30 43 30 163q0 116 -31 160q-23 32 -69 32q-45 0 -84.5 -41.5t-48.5 -87.5q-8 7 -31 9q58 226 81 385q17 0 102 -2q65 -2 99 -2q37 0 53 10q23 15 30 59q14 -8 31 -8
q-35 -137 -61 -166q-29 -32 -125 -32q-12 0 -53 2t-53 2q-13 0 -16 -16q-12 -42 -29 -117q-3 -9 -6 -26l3 -1q9 12 24 31q38 42 124 42q212 0 212 -224z" />
    <glyph glyph-name="six" unicode="6" horiz-adv-x="504" 
d="M477 244q0 -139 -63 -200q-56 -54 -167 -54q-110 0 -161 68q-59 79 -59 264q0 377 259 377q175 0 175 -128q0 -26 -20 -45t-46 -19q-23 0 -42 17.5t-20.5 47.5t-7.5 77q-7 20 -38 20q-105 0 -109 -236q0 -4 -1.5 -15t-1.5 -15q0 -7 2 -7q4 0 8.5 12t7.5 15q43 47 114 47
q85 0 124 -45q46 -52 46 -181zM326 225q0 126 -15 165q-13 32 -50 32q-46 0 -62 -42t-16 -151q0 -129 20 -175q17 -37 59 -37q37 0 50.5 41.5t13.5 166.5z" />
    <glyph glyph-name="seven" unicode="7" horiz-adv-x="498" 
d="M482 673q-70 -102 -107 -185q-57 -129 -84 -261q-18 -94 -27 -228q-30 4 -66 4t-73 -4q31 140 88 263q38 82 147 272q3 5 3 8t-13 4q-49 3 -125 3q-82 0 -135 -3q-19 -1 -26 -17q-4 -10 -17 -76q-18 14 -41 17q54 131 73 218q95 -5 197 -5q77 0 193 4q4 -8 13 -14z" />
    <glyph glyph-name="eight" unicode="8" horiz-adv-x="484" 
d="M467 206q0 -101 -69 -160q-64 -55 -165 -55q-102 0 -159 45.5t-57 130.5q0 120 119 160q4 1 4 5q0 5 -9 8q-14 4 -15 5q-81 53 -81 169q0 86 61 136q58 47 147 47q77 0 130 -40q59 -44 59 -121q0 -50 -33 -87q-28 -34 -64 -40q-3 -1 -3 -3q0 -4 13 -9q56 -26 83 -58
q39 -49 39 -133zM349 526q0 143 -107 143q-99 0 -99 -104q0 -49 45 -86q26 -21 88 -50q11 -5 23 -5q23 0 38 42q12 32 12 60zM354 145q0 48 -24 79q-18 23 -59 44q-38 17 -76 35q-10 5 -20 5q-72 0 -72 -122q0 -162 134 -162q64 0 90.5 28.5t26.5 92.5z" />
    <glyph glyph-name="nine" unicode="9" horiz-adv-x="504" 
d="M477 367q0 -377 -259 -377q-175 0 -175 128q0 26 20 45t46 19q23 0 41 -16q20 -19 23 -49q0 -30 6 -77q7 -20 38 -20q105 0 109 236q0 4 2 15t2 15q0 7 -3 7q-4 0 -7 -11q-6 -13 -9 -16q-43 -47 -114 -47q-85 0 -124 45q-46 52 -46 181q0 139 63 200q56 54 167 54
q110 0 161 -68q59 -79 59 -264zM321 460q0 129 -20 175q-17 37 -59 37q-37 0 -50 -40q-14 -43 -14 -168q0 -126 15 -165q13 -32 50 -32q46 0 62 42t16 151z" />
    <glyph glyph-name="colon" unicode=":" horiz-adv-x="213" 
d="M187 372q0 -39 -24 -60.5t-57 -21.5t-55 20q-25 23 -25 62q0 38 25 61q22 20 55 20t56 -20q25 -23 25 -61zM187 72q0 -39 -24 -60.5t-57 -21.5t-55 20q-25 23 -25 62q0 38 25 61q22 20 55 20t56 -20q25 -23 25 -61z" />
    <glyph glyph-name="semicolon" unicode=";" horiz-adv-x="226" 
d="M190 372q0 -39 -24 -60.5t-57 -21.5t-55 20q-25 23 -25 62q0 38 25 61q22 20 55 20t56 -20q25 -23 25 -61zM205 23q0 -85 -51 -145q-30 -36 -85 -70q-2 14 -18 30q110 62 110 154q0 7 -6 7q-2 0 -24 -10q-9 -4 -21 -4q-40 0 -62 26q-19 22 -19 54q0 36 25.5 62t65.5 26
q36 0 59 -30q26 -35 26 -100z" />
    <glyph glyph-name="less" unicode="&#x3c;" horiz-adv-x="527" 
d="M517 45l-280 165q-186 107 -225 117q3 13 3 25q0 14 -4 28q51 12 248 127l258 154q-5 -30 -5 -39q0 -8 4 -28q-176 -87 -405 -226q-20 -7 -41 -15q0 -2 11 -5t30 -10q207 -132 405 -226q-4 -22 -4 -31t5 -36z" />
    <glyph glyph-name="equal" unicode="=" horiz-adv-x="527" 
d="M510 343q-80 5 -228 5q-129 0 -265 -5q4 17 4 28q0 12 -4 31q102 -5 265 -5q148 0 228 5q-4 -17 -4 -28q0 7 4 -31zM510 177q-80 5 -228 5q-129 0 -265 -5q4 17 4 28q0 12 -4 31q102 -5 265 -5q148 0 228 5q-4 -17 -4 -28q0 7 4 -31z" />
    <glyph glyph-name="greater" unicode="&#x3e;" horiz-adv-x="527" 
d="M516 380q-4 -14 -4 -23l3 -30q-39 -10 -225 -117q-44 -25 -280 -165q5 27 5 36t-4 31q201 96 405 226q8 5 30 10q13 3 13 4q0 2 -13 6q-56 16 -211 107q-192 113 -224 129q4 20 4 28q0 9 -5 39l258 -154q195 -115 248 -127z" />
    <glyph glyph-name="question" unicode="?" horiz-adv-x="385" 
d="M365 510q0 -75 -38 -116q-27 -28 -112 -72q-40 -21 -53 -36t-13 -39q0 -16 13 -65q-26 0 -40 -9q-9 49 -9 71q0 64 50 97q39 25 51 73q8 29 8 92q0 108 -14 147q-11 34 -41 34q-36 0 -36 -23q0 -10 15.5 -35t15.5 -49q0 -41 -20.5 -63t-50.5 -22q-32 0 -55 23
q-26 25 -26 65q0 54 47 92.5t122 38.5q83 0 133 -51q53 -55 53 -153zM227 72q0 -39 -24 -60.5t-57 -21.5t-55 20q-25 23 -25 62q0 38 25 61q22 20 55 20t56 -20q25 -23 25 -61z" />
    <glyph glyph-name="at" unicode="@" horiz-adv-x="731" 
d="M714 375q0 -127 -57 -225q-60 -103 -145 -103q-89 0 -89 67q0 3 1.5 8t1.5 8q0 4 -5 4q-2 0 -4 -3q-4 -11 -15 -31q-41 -51 -85 -51q-125 0 -125 173q0 114 53 196q56 88 147 88q50 0 69 -36q4 -8 8 -30q1 -4 4 -8q2 0 5 14q1 6 5 34q15 -5 44 -5q27 0 47 6l-27 -142
q-33 -174 -33 -201q0 -42 24 -42q31 0 60 38q79 103 79 243q0 114 -58 187q-64 82 -182 82q-163 0 -265 -127q-92 -115 -92 -272q0 -139 77 -231q87 -102 241 -102q80 0 149 36q75 38 123 110q7 -23 27 -31q-124 -152 -317 -152q-173 0 -271 113q-87 101 -87 254
q0 173 106 299q116 140 305 140q142 0 217 -96q64 -82 64 -212zM451 374q0 50 -11 68.5t-40 18.5q-39 0 -71 -58q-40 -73 -40 -200q0 -101 46 -101q25 0 52.5 30.5t41.5 77.5q22 73 22 164z" />
    <glyph glyph-name="A" unicode="A" horiz-adv-x="604" 
d="M594 0q-79 5 -153 5q-72 0 -140 -5q2 6 2 15q0 8 -2 19q28 -4 42 -4q17 0 17 9q0 4 -2 12q-22 89 -50 181q-3 11 -15 12q-18 1 -44 1q-23 0 -63 -1q-19 0 -22 -12q-13 -43 -24 -84q-14 -52 -14 -81q0 -37 19 -37q16 0 43 4q-3 -9 -3 -18t3 -17q-47 5 -95 5q-42 0 -83 -5
q3 9 3 17q0 9 -3 18q17 -2 29 -2q23 0 63 118q37 109 171 570q15 -3 28 -3t29 3q49 -196 202 -669q6 -20 24 -20q13 0 38 3q-2 -7 -2 -16t2 -18zM293 282q0 2 -1 4q-6 15 -25 81q-19 63 -20 71q-1 15 -4 40q0 5 -6 11q-1 0 -3 -11q-4 -15 -54 -189q-1 -3 -1 -7q0 -7 58 -7
q7 0 22 1h26q8 0 8 6z" />
    <glyph glyph-name="B" unicode="B" horiz-adv-x="593" 
d="M573 195q0 -102 -48.5 -148.5t-152.5 -46.5q-36 0 -115.5 1.5t-114.5 1.5q-77 0 -132 -3q2 10 2 18t-2 17l41 -4q17 0 18 18q5 110 5 312q0 194 -5 298q-1 16 -19 16q-6 0 -19 -1.5t-21 -1.5q3 15 3 16q0 3 -3 18q62 -4 162 -4q27 0 90.5 2.5t90.5 2.5q173 0 173 -168
q0 -121 -123 -149q-2 0 -22 -1q-8 0 -8 -3q0 -5 7.5 -5t22.5 -1q170 -18 170 -185zM366 517q0 89 -14 116q-21 42 -93 42q-25 0 -26 -12q-7 -126 -7 -231q0 -24 1.5 -29.5t10.5 -5.5h13q8 -1 16 -1q66 0 84 25q15 21 15 96zM411 193q0 97 -22 131q-28 41 -111 41
q-8 0 -39 -1q-14 0 -14 -12q0 -51 3.5 -154t3.5 -154q0 -8 6.5 -10t32.5 -2q89 0 114.5 30.5t25.5 130.5z" />
    <glyph glyph-name="C" unicode="C" horiz-adv-x="590" 
d="M555 59q-93 -72 -203 -72q-164 0 -240.5 88t-76.5 275q0 189 82 278q79 88 245 88q101 0 193 -47q-8 -49 -8 -126q0 -39 4 -75q-10 3 -17 3q-8 0 -14 -3q-5 102 -48 162q-42 57 -106 57q-86 0 -120 -56q-42 -71 -42 -273q0 -206 33 -276q31 -65 121 -65q64 0 109 64
q48 68 53 181q12 -3 16 -3q3 0 15 4q-5 -36 -5 -82q0 -72 9 -122z" />
    <glyph glyph-name="D" unicode="D" horiz-adv-x="710" 
d="M676 358q0 -120 -34 -204q-39 -97 -125 -132q-52 -22 -135 -22q-37 0 -121.5 1.5t-122.5 1.5q-72 0 -128 -3q3 6 3 16t-3 19q28 -3 39 -3q19 0 20 16q5 106 5 311q0 214 -4 298q-1 18 -23 18q-7 0 -20 -2t-17 -2q3 5 3 16q0 12 -3 19q59 -3 133 -3q35 0 115 1.5t115 1.5
q103 0 163 -31q70 -36 106 -125q34 -83 34 -192zM510 353q0 142 -20.5 209.5t-70.5 91.5q-41 20 -133 20q-30 0 -34 -1q-18 -3 -19 -21q-6 -108 -6 -295q0 -178 6 -298q1 -19 8 -22.5t50 -3.5q127 0 171 58q48 65 48 262z" />
    <glyph glyph-name="E" unicode="E" horiz-adv-x="583" 
d="M549 251q-10 -104 -10 -182q0 -32 4 -69q-107 4 -238 4q-173 0 -296 -4q4 9 4 19q0 8 -3 16q49 -4 42 -4q17 0 18 20q4 91 4 310q0 194 -5 298q-1 16 -20 16q-12 0 -39 -4q3 9 3 17t-3 18q76 -4 190 -4q51 0 155 2t160 2q-5 -49 -5 -77q0 -70 11 -150q-5 0 -9 1h-5
q-3 0 -15 -3q-16 121 -73 162q-45 33 -150 33h-11q-18 0 -21.5 -3.5t-4.5 -21.5q-7 -133 -7 -245q0 -19 3 -23t17 -4q72 0 97 33t25 121q6 -2 16 -2t18 2q-9 -106 -9 -183q0 -81 9 -162q-7 2 -19 2q-9 0 -15 -1q0 100 -26 132q-24 29 -96 29q-14 0 -17 -4t-3 -23
q0 -120 7 -257q1 -19 8 -23t41 -4h23q107 0 159 50t54 165q7 -2 15 -2q10 0 17 3z" />
    <glyph glyph-name="F" unicode="F" horiz-adv-x="550" 
d="M518 479q-9 -1 -30 -5q-12 117 -66 160q-47 37 -161 37q-22 0 -26 -2t-5 -14q-7 -137 -7 -236q0 -28 2.5 -35t14.5 -8t18 -1q58 0 82.5 34t24.5 119q7 -2 15 -2q10 0 19 3q-10 -124 -10 -182q0 -70 10 -162q-10 2 -18 2t-16 -2q0 97 -26 131q-23 31 -85 31h-11
q-16 0 -20 -11q-1 -4 -1 -25q0 -125 8 -263q1 -17 19 -17q19 0 44 4q-2 -9 -2 -17t2 -18q-51 4 -137 4q-58 0 -145 -4q3 14 3 19q0 6 -3 16q22 -4 38 -4t17 17q5 107 5 313q0 193 -5 297q-1 17 -18 17q-15 0 -40 -4q3 9 3 17q0 9 -3 18q74 -4 182 -4q53 0 160.5 2t161.5 2
q-5 -49 -5 -77q0 -70 11 -150z" />
    <glyph glyph-name="G" unicode="G" horiz-adv-x="670" 
d="M666 343q-3 -7 -3 -18q0 -8 2 -15q-39 3 -36 3q-14 0 -15 -14q-4 -42 -4 -96q0 -88 7 -148q-43 -25 -112 -45q-82 -24 -150 -24q-159 0 -236 81q-84 88 -84 283q0 191 85.5 279t265.5 88q115 0 215 -57q-6 -44 -6 -102q0 -57 7 -102q-13 3 -18 3t-13 -3q-19 117 -72 178
q-49 54 -116 54q-85 0 -126 -60q-53 -80 -53 -287q0 -197 37 -267q31 -59 111 -59q72 0 87.5 25t15.5 143q0 39 -4 116q-1 13 -24 13q-15 0 -36 -3q3 7 3 16t-3 18q83 -6 143 -6q79 0 132 6z" />
    <glyph glyph-name="H" unicode="H" horiz-adv-x="662" 
d="M653 0q-89 4 -151 4q-73 0 -134 -5q2 10 2 16q0 8 -3 20q41 -4 43 -4q16 0 17 16q5 68 5 195v89q0 11 -3 13t-17 3q-55 2 -76 2q-29 0 -88 -2q-13 0 -16 -3t-3 -15v-43q-1 -29 -1 -44q0 -114 5 -196q1 -15 24 -15q15 0 39 4q-3 -6 -3 -17t3 -19q-64 5 -137 5
q-62 0 -149 -4q2 8 2 18q0 9 -2 17q22 -4 37 -4q22 0 22 11q5 135 5 318q0 210 -4 296q-1 19 -18 19q7 0 -42 -4q3 15 3 17q0 3 -3 18q87 -4 149 -4q73 0 137 5q-3 -6 -3 -17q0 -10 3 -19q-25 4 -38 4q-24 0 -25 -16q-6 -84 -6 -160q0 -24 2 -85q1 -20 4 -24.5t14 -5.5
q35 -2 88 -2q41 0 78 2q14 1 16.5 3.5t2.5 17.5q0 19 1 56v57q0 78 -5 140q-1 18 -22 18q-12 0 -38 -5q2 8 2 17q0 8 -2 18q65 -3 153 -3q85 0 132 3q-4 -8 -4 -18q0 -9 4 -17q-35 3 -42 3q-21 0 -22 -15q-4 -80 -4 -300q0 -228 4 -312q1 -17 25 -17q13 0 38 5q-2 -5 -2 -16
q0 -13 3 -19z" />
    <glyph glyph-name="I" unicode="I" horiz-adv-x="312" 
d="M300 -1q-64 5 -141 5q-62 0 -149 -4q2 7 2 18t-2 17q24 -5 38 -5q25 0 26 17q5 107 5 314q0 202 -5 301q-1 13 -22 13q-16 0 -42 -4q2 6 2 17t-2 18q87 -4 149 -4q77 0 141 5q-3 -8 -3 -20q0 -8 2 -16q-28 4 -39 4q-21 0 -22 -12q-9 -147 -9 -303q0 -161 9 -314
q1 -16 19 -16q10 0 42 5q-2 -8 -2 -16q0 -11 3 -20z" />
    <glyph glyph-name="J" unicode="J" horiz-adv-x="425" 
d="M413 671q-27 4 -41 4q-22 0 -23 -16q-9 -148 -9 -298q0 -32 1 -90.5t1 -82.5q0 -69 -6 -97q-22 -101 -178 -101q-60 0 -101 23q-52 30 -52 91q0 37 21.5 58t49.5 21t46 -19t18 -47q0 -29 -29 -56q-14 -13 -14 -20q0 -20 42 -20q25 0 36 19.5t12 70.5q3 141 3 250
q0 193 -5 297q-1 17 -21 17q-21 0 -42 -4q2 6 2 16q0 11 -2 19q87 -4 151 -4q90 0 140 4q-2 -7 -2 -18t2 -17z" />
    <glyph glyph-name="K" unicode="K" horiz-adv-x="656" 
d="M647 -1q-61 3 -156 3q-87 0 -155 -3q2 8 2 16t-2 18q28 -4 43 -4q16 0 16 5t-3 12q-28 111 -127 300q-8 15 -25 15q-13 0 -15.5 -9t-2.5 -48q0 -63 11 -251q1 -23 24 -23q14 0 42 5q-2 -6 -2 -15q0 -12 3 -21q-64 5 -141 5q-62 0 -149 -4q3 15 3 18q0 2 -3 17
q45 -4 40 -4q19 0 20 20q4 91 4 310q0 200 -5 300q-1 15 -18 15q-8 0 -41 -5q3 9 3 17q0 9 -3 18q87 -4 144 -4q71 0 135 5q-2 -6 -2 -19q0 -12 2 -17q-25 4 -39 4q-16 0 -17 -13q-8 -136 -8 -218q0 -37 1.5 -45t7.5 -8q19 0 26.5 3.5t16.5 17.5q43 63 87 126q65 99 65 129
q0 8 -13 8q7 0 -49 -3q3 12 3 18q0 5 -2 17q51 -5 104 -5q50 0 99 5q-2 -7 -2 -16q0 -11 3 -19q-28 5 -38 5q-17 0 -32 -15q-65 -66 -106 -145q-9 -18 -9 -34q0 -13 6 -26l88 -206q53 -120 99 -201q11 -20 29 -20l37 3q-2 -9 -2 -16q0 -9 3 -18z" />
    <glyph glyph-name="L" unicode="L" horiz-adv-x="568" 
d="M523 0q-54 0 -162.5 2t-166.5 2q-111 0 -184 -4q3 6 3 17t-3 18q27 -5 41 -5q17 0 18 17q5 107 5 314q0 194 -5 298q-1 16 -20 16q-9 0 -39 -4q3 8 3 17q0 10 -3 18q87 -4 149 -4q89 0 140 4q-3 -10 -3 -19t3 -16q-29 4 -42 4q-23 0 -24 -14q-9 -147 -9 -301
q0 -158 9 -309q1 -16 22 -16q126 0 173.5 45.5t66.5 187.5q10 -4 19 -4q2 0 9 1q-3 -65 -3 -140q0 -82 3 -125z" />
    <glyph glyph-name="M" unicode="M" horiz-adv-x="804" 
d="M793 -1q-61 5 -141 5q-52 0 -135 -4q3 8 3 17t-3 18q24 -6 34 -6q14 0 15 18q5 109 5 314q0 38 -1.5 89.5t-1.5 81.5q0 22 1.5 42.5t1.5 21.5q0 5 -2 5q-3 0 -12 -27q-5 -18 -10 -35q-76 -204 -169 -504q-6 -19 -10 -42q-14 2 -19 2q-13 0 -21 -2q0 3 -12 41
q-28 89 -84 240q-50 135 -100 269q-9 25 -14 56q-2 5 -5 5t-3 -6l1.5 -8.5t1.5 -20.5l1 -316q0 -124 15 -209q3 -16 29 -16q18 0 42 6q-2 -6 -2 -17q0 -12 2 -18q-47 4 -86 4q-46 0 -105 -4q2 7 2 16q0 11 -2 19q26 -7 37 -7q17 0 19 16q11 77 11 209q0 28 1 112v127
q0 61 -7 168q-1 17 -19 17q-19 0 -42 -4q3 7 3 20q0 10 -2 15q43 -4 100 -4q83 0 136 3q23 -79 156 -440q2 -13 11 -26q1 0 4 9q30 99 61 198q40 128 65 189q13 32 17 70q83 -4 111 -4q61 0 122 5q-4 -7 -4 -17t4 -19q-28 3 -40 3q-22 0 -23 -13q-7 -109 -7 -284
q0 -221 7 -332q1 -15 21 -15q16 0 40 4q-1 -4 -1 -13q0 -15 3 -22z" />
    <glyph glyph-name="N" unicode="N" horiz-adv-x="601" 
d="M591 671q-19 5 -33 5q-22 0 -27 -22t-8 -140q-1 -37 -1 -61q0 -158 4 -462q-32 0 -43 -9q-11 34 -33 72q-56 99 -153 250l-164 252q-5 15 -16 44q-2 4 -4 4q-3 -1 -3 -4q0 -4 3 -24.5t3 -30.5v-173q0 -183 2 -214q6 -91 13 -109t36 -18q3 0 30 3q-2 -8 -2 -18t2 -17
q-57 4 -99 4q-40 0 -87 -4q2 5 2 17t-2 18q24 -4 33 -4q17 0 22 19q7 25 8 110q2 120 2 146v161q0 152 -10 194q-4 17 -21 17q-11 0 -35 -5q3 7 3 16q0 10 -3 19q41 -5 99 -5q51 0 112 4q34 -66 115 -190q126 -194 133 -205q4 -12 12 -31q3 -6 5 -6q5 0 5 10q0 8 -2 25.5
t-2 25.5q0 102 -4 180q-5 118 -10.5 139t-30.5 21q-11 0 -35 -4q2 7 2 18t-2 18q37 -5 86 -5q43 0 98 4q-3 -7 -3 -17t3 -18z" />
    <glyph glyph-name="O" unicode="O" horiz-adv-x="674" 
d="M639 367q0 -190 -82 -287q-77 -91 -220 -91q-145 0 -222 88q-80 93 -80 274q0 177 78.5 271t224.5 94q147 0 224 -91t77 -258zM480 336q0 221 -34 293q-27 59 -105 59q-82 0 -113 -59q-35 -70 -35 -272t36 -276q31 -63 109 -63q73 0 104 55q38 70 38 263z" />
    <glyph glyph-name="P" unicode="P" horiz-adv-x="541" 
d="M516 508q0 -190 -188 -190q-15 0 -50 2t-49 2q-11 0 -11 -12q0 -93 9 -256q1 -23 19 -23q9 0 41 4q-3 -13 -3 -18q0 -6 3 -17q-51 4 -134 4q-56 0 -143 -4q3 7 3 17t-3 18q23 -4 38 -4t16 20q4 91 4 310q0 163 -7 301q-1 13 -15 13q-15 0 -36 -4q2 6 2 17q0 12 -2 18
q94 -5 146 -5q22 0 79 2.5t79 2.5q103 0 152.5 -47.5t49.5 -150.5zM357 506q0 102 -23 136q-22 31 -84 31q-24 0 -25 -5q-7 -28 -7 -296q0 -14 4.5 -17.5t23.5 -3.5q70 0 90.5 27t20.5 128z" />
    <glyph glyph-name="Q" unicode="Q" horiz-adv-x="674" 
d="M639 366q0 -379 -281 -379q-8 0 -22.5 2.5t-21.5 2.5t-7 -3t6.5 -4.5t18.5 -4.5q37 -12 53 -21q29 -15 36 -38q6 -26 12 -51q10 -30 35 -30q14 0 50 5q-2 -5 -2 -16q0 -12 2 -18q-22 0 -61 -1t-48 -1q-144 0 -153 123q-4 57 -18 69l-58 30q-145 87 -145 318q0 182 83 277
q79 90 220 90q140 0 219 -88q82 -92 82 -262zM480 361q0 198 -34 267q-28 60 -105 60q-76 0 -109 -67q-38 -76 -38 -269q0 -196 32 -268q31 -68 112 -68q74 0 105 66q37 77 37 279z" />
    <glyph glyph-name="R" unicode="R" horiz-adv-x="641" 
d="M632 0h-79q-89 0 -124 27q-39 31 -45 118l-5 73q-4 52 -4 53q-3 33 -12 50q-19 36 -95 36h-24q-20 0 -20 -12v-52q-1 -35 -1 -53q0 -111 5 -193q1 -16 14 -16q14 0 39 4q-3 -6 -3 -16t3 -20q-64 5 -133 5q-51 0 -138 -4q2 8 2 17q0 10 -2 18q25 -4 38 -4q15 0 16 17
q5 109 5 313q0 160 -7 300q-1 13 -19 13q-7 0 -33 -3q3 7 3 16q0 7 -3 19q68 -4 155 -4q33 0 105.5 2t85.5 2q76 0 122 -50t46 -122q0 -104 -135 -147q-18 -6 -37 -7q-13 -2 -13 -4q0 -3 21 -4q27 -2 30 -2q106 -20 138 -109q9 -28 20 -153q6 -78 52 -78q4 0 32 4
q-2 -7 -2 -19q0 -10 2 -15zM366 526q0 147 -97 147h-20q-23 0 -24 -17q-3 -48 -3 -101q0 -27 1 -78.5t1 -74.5q0 -10 3.5 -12t19.5 -2h20q59 0 82 41q17 31 17 97z" />
    <glyph glyph-name="S" unicode="S" horiz-adv-x="529" 
d="M503 210q0 -223 -272 -223q-98 0 -199 48q3 25 3 61q0 69 -11 147q7 -3 17 -3q8 0 14 2q31 -219 196 -219q138 0 138 129q0 75 -92 123q-85 40 -171 80q-92 58 -92 161q0 92 55 144q61 59 185 59q100 0 176 -45q-6 -40 -6 -103q0 -32 2 -58h-14q-5 0 -17 -2
q-5 82 -47.5 129.5t-105.5 47.5q-123 0 -123 -117q0 -67 113 -116q56 -24 113 -49q64 -32 97 -72q41 -51 41 -124z" />
    <glyph glyph-name="T" unicode="T" horiz-adv-x="622" 
d="M588 472q-7 2 -15 2t-16 -2q-7 100 -46 153q-34 47 -85 47h-18q-13 0 -14 -12q-7 -121 -7 -297q0 -169 7 -315q1 -18 22 -18q15 0 39 5q-2 -7 -2 -16q0 -10 3 -20q-64 5 -139 5q-59 0 -146 -4q2 5 2 16q0 12 -3 19q26 -5 38 -5q21 0 22 18q5 109 5 313q0 199 -5 299
q-1 12 -15 12h-11q-53 0 -92 -51q-43 -56 -47 -149q-8 2 -16 2q-7 0 -15 -2q7 69 7 122q0 48 -7 112q115 -4 293 -4q165 0 260 4q-5 -62 -5 -117q0 -44 6 -117z" />
    <glyph glyph-name="U" unicode="U" horiz-adv-x="616" 
d="M606 671q-28 5 -35 5q-20 0 -26 -41.5t-7 -199.5l-1 -204q0 -133 -27 -176q-43 -65 -188 -65q-141 0 -200 47q-62 51 -62 179q0 48 1 143.5t1 143.5v34q0 88 -2 126q-1 13 -14 13q1 0 -36 -4q2 6 2 16t-2 18q56 -3 129 -3q81 0 136 3q-2 -6 -2 -14q0 -11 3 -20
q-32 5 -38 5q-13 0 -13 -14q0 -27 -2 -128q-2 -83 -2 -140q0 -96 3 -178q4 -113 30.5 -147.5t107.5 -34.5q91 0 121 47q19 31 19 113l-1 236q-2 160 -10.5 203t-35.5 43q-13 0 -39 -6q3 10 3 17q0 5 -3 19q41 -5 89 -5q46 0 101 4q-3 -8 -3 -18q0 -9 3 -17z" />
    <glyph glyph-name="V" unicode="V" horiz-adv-x="604" 
d="M596 672q-24 5 -30 5q-16 0 -27 -22q-8 -17 -37 -101q-32 -92 -64 -183q-56 -168 -119 -384q-11 2 -19 2q-16 0 -22 -2q-29 116 -208 675q-5 15 -21 15q1 0 -39 -4q3 8 3 16t-3 18q59 -4 150 -4q82 0 146 5q-3 -7 -3 -18q0 -10 3 -17q-27 3 -45 3q-16 0 -17 -12
q29 -120 103 -345q14 -43 14 -64q0 -17 3 -17t6 13q5 22 5 23q28 81 88 282q20 77 20 100q0 21 -20 21q-7 0 -36 -5q3 8 3 17t-3 18q53 -4 89 -4q42 0 79 5q-2 -7 -2 -16q0 -11 3 -20z" />
    <glyph glyph-name="W" unicode="W" horiz-adv-x="936" 
d="M926 672q-24 5 -30 5q-16 0 -27 -22q-8 -17 -37 -101q-32 -92 -64 -183q-56 -168 -119 -384q-10 2 -21 2q-14 0 -20 -2q-17 67 -129 426q-4 17 -9 37q-1 4 -6 4q-3 0 -4 -3q-4 -18 -10 -40q-41 -116 -131 -424q-10 2 -19 2q-16 0 -22 -2q-29 115 -208 675q-5 15 -21 15
q1 0 -39 -4q3 8 3 16t-3 18q59 -4 150 -4q82 0 146 5q-3 -7 -3 -18q0 -10 3 -17q-27 3 -45 3q-17 0 -17 -6v-6q29 -120 103 -345q14 -43 14 -66q0 -15 3 -15q4 0 7 16l4 20q20 57 69 215q3 10 3 17q0 8 -3 17l-44 139q-5 15 -21 15q1 0 -39 -4q3 8 3 16t-3 18q59 -4 150 -4
q82 0 146 5q-3 -7 -3 -18q0 -10 3 -17q-27 3 -45 3q-17 0 -17 -6v-6q29 -120 103 -345q11 -33 13 -65q1 -16 4 -16q4 0 7 16l4 20q28 81 88 282q20 77 20 100q0 21 -20 21q-7 0 -36 -5q3 8 3 17t-3 18q53 -4 89 -4q42 0 79 5q-2 -7 -2 -16q0 -11 3 -20z" />
    <glyph glyph-name="X" unicode="X" horiz-adv-x="630" 
d="M620 -1q-87 6 -164 6q-68 0 -136 -5q2 8 2 17t-2 17q20 -4 37 -4q15 0 15 5t-3 13q-28 71 -88 193q-5 11 -12 30q-2 8 -7 8l-22 -39q-95 -168 -95 -192q0 -16 17 -16q10 0 31 2q-3 -6 -3 -16q0 -12 4 -19q-55 6 -92 6t-92 -6q3 8 3 17q0 10 -3 18q18 -2 32 -2q19 0 28 13
q38 50 148 224q21 36 21 49q0 10 -14 37q-26 50 -79.5 151.5t-79.5 152.5q-8 16 -24 16q-12 0 -32 -3q3 8 3 15t-3 19q53 -4 131 -4q79 0 172 4q-3 -7 -3 -16t3 -18q-31 5 -42 5q-18 0 -18 -8q0 -13 68 -158q19 -40 20 -40q6 0 11 11q12 28 14 31q29 52 57 104q19 36 19 48
q0 9 -17 9q-14 0 -34 -2q3 6 3 16q0 11 -3 19q42 -5 85 -5q24 0 95 5q-4 -8 -4 -19q0 -9 4 -16q-25 4 -36 4q-17 0 -29 -17q-41 -56 -118 -175q-21 -35 -21 -54q0 -14 13 -40q17 -33 175 -332q14 -27 36 -27q4 0 28 3q-2 -8 -2 -17q0 -10 3 -18z" />
    <glyph glyph-name="Y" unicode="Y" horiz-adv-x="566" 
d="M560 672q-30 4 -37 4q-10 0 -21 -18q-32 -54 -67 -134q-29 -69 -59 -138q-10 -23 -10 -38v-43q0 -150 6 -253q1 -21 19 -21q7 0 42 4q-3 -8 -3 -16q0 -13 4 -20q-64 5 -137 5q-56 0 -143 -4q2 6 2 17t-2 18q22 -4 40 -4t19 18q3 93 3 175v62q-1 42 -1 62t-8 36l-102 200
q-34 65 -43 78t-21 13q-1 0 -31 -3q3 8 3 17q0 8 -3 17q62 -3 136 -3q79 0 138 3q-3 -5 -3 -15q0 -11 3 -19q-7 1 -13 1q-12 1 -20 1q-23 0 -23 -8q0 -9 15 -36q20 -35 21 -37q8 -17 75 -156q2 -8 5 -17q3 -12 7 -12q2 0 3.5 5.5t8.5 24.5q75 177 75 222q0 15 -18 15
q-12 0 -32 -4q2 10 2 18t-2 18q45 -4 78 -4q53 0 94 3q-2 -10 -2 -18t2 -16z" />
    <glyph glyph-name="Z" unicode="Z" horiz-adv-x="569" 
d="M536 0q-116 3 -263 3q-164 0 -260 -3q-1 11 -5 18q21 18 41 54q47 86 129 266q99 219 131 283l21 43q0 7 -36 7h-14q-95 0 -140 -39q-50 -44 -50 -149q-8 2 -17 2q-8 0 -16 -2q6 51 6 117q0 60 -6 106q87 -4 231 -4q107 0 223 4q0 -9 6 -17q-9 -13 -28 -43
q-51 -94 -137 -288q-104 -235 -128 -285q-19 -39 -19 -36q0 -6 14 -6h21q130 0 190 45q70 53 74 185q9 -2 16 -2t15 2q-6 -74 -6 -138q0 -61 7 -123z" />
    <glyph glyph-name="bracketleft" unicode="[" horiz-adv-x="263" 
d="M235 -206q-4 -10 -4 -23q0 -11 3 -19q-30 6 -101 6q-69 0 -101 -5q7 166 7 449q0 243 -7 505q51 -5 91 -5q36 0 112 5q-4 -10 -4 -22q0 -11 3 -18q-27 3 -73 3q-24 0 -25 -20q-6 -185 -6 -446q0 -243 6 -394q1 -20 22 -20q43 0 77 4z" />
    <glyph glyph-name="backslash" unicode="\" horiz-adv-x="299" 
d="M309 -2q-16 5 -36 5q-17 0 -28 -4q-113 358 -256 710q15 -5 37 -5q17 0 28 3q76 -244 255 -709z" />
    <glyph glyph-name="bracketright" unicode="]" horiz-adv-x="263" 
d="M232 -247q-53 5 -92 5q-50 0 -109 -4q2 10 2 19q0 8 -2 20q26 -3 71 -3q24 0 25 20q6 185 6 446q0 242 -6 394q-1 20 -20 20h-2q-50 0 -74 -3q3 10 3 19q0 10 -3 21q24 -5 99 -5q68 0 102 5q-8 -190 -8 -449q0 -266 8 -505z" />
    <glyph glyph-name="asciicircum" unicode="^" horiz-adv-x="580" 
d="M476 349q-25 4 -41 4q-10 0 -37 -4q-29 101 -92 230q-2 9 -9 28q-3 6 -6 6t-5 -8t-10 -27q-60 -123 -96 -229q-21 5 -34 5q-18 0 -43 -6q109 206 160 360q11 -5 28 -5q16 0 31 5q48 -148 154 -359z" />
    <glyph glyph-name="underscore" unicode="_" horiz-adv-x="385" 
d="M386 -125h-386v50h386v-50z" />
    <glyph glyph-name="grave" unicode="`" 
d="M177 524q-13 2 -20 2q-8 0 -16 -2q-36 67 -95 119q-28 24 -28 44q0 19 51 19q30 0 42.5 -6.5t18.5 -31.5q10 -43 47 -144z" />
    <glyph glyph-name="a" unicode="a" horiz-adv-x="470" 
d="M460 1q-82 -8 -84 -8q-104 0 -104 63q-1 3 -3 3q-1 0 -4 -10q-8 -26 -35 -42.5t-69 -16.5q-146 0 -146 127q0 83 57 118q16 10 100 33q75 21 86 32q3 4 3 11v49q0 44 -3 59q-6 36 -31 46q-11 5 -28 5q-29 0 -29 -19v-33q-1 -23 -1 -31q0 -31 -21 -49.5t-48 -18.5
q-25 0 -43 17t-18 48q0 112 185 112q93 0 133 -30q47 -36 47 -129v-223v-22q-1 -15 -1 -22q0 -44 23 -44q9 0 32 9q-2 -9 -2 -14q0 -8 4 -20zM260 263q0 7 -4 7t-19 -8q-18 -9 -21 -10q-61 -20 -61 -132q0 -44 2 -55q7 -35 34 -35q37 0 54 43q10 25 11 53q4 120 4 137z" />
    <glyph glyph-name="b" unicode="b" horiz-adv-x="516" 
d="M490 243q0 -136 -42.5 -193.5t-135.5 -57.5q-83 0 -106 50q-8 17 -10 17q-14 0 -20 -63q-21 2 -129 4q6 14 13 62q7 157 7 301q0 150 -10 297q-1 19 -13 19q-13 0 -31 -4q1 5 1 13q0 12 -4 19q39 -2 66 -2q70 0 137 7q-2 -28 -4 -72q-2 -27 -4 -181q-1 -10 -3 -31
q1 -5 3 -5q3 0 5 7q4 17 15 28q36 38 95 38q89 0 127 -50q43 -58 43 -203zM349 233q0 154 -16 195q-10 28 -48 28q-30 0 -53 -47q-26 -54 -26 -142v-28q-1 -18 -1 -28q0 -180 81 -179q36 0 48 32q15 40 15 169z" />
    <glyph glyph-name="c" unicode="c" horiz-adv-x="419" 
d="M404 374q0 -31 -20 -49t-48 -18q-74 0 -74 73q0 9 1.5 26.5t1.5 26.5q0 22 -3 27q-5 10 -24 10q-40 0 -53 -38q-16 -44 -16 -181q0 -136 24 -185q19 -39 66 -39q49 0 75 22t38 75q14 -9 31 -9q-13 -62 -60 -95q-42 -30 -99 -30q-111 0 -165 57.5t-54 190.5q0 137 54 199
q52 59 158 59q167 0 167 -122z" />
    <glyph glyph-name="d" unicode="d" horiz-adv-x="525" 
d="M515 -1q-28 2 -69 2q-62 0 -131 -6q7 73 7 64q0 5 -3 5q-2 0 -4 -9q-2 -5 -3 -10q-26 -55 -89 -55q-105 0 -150 54q-48 57 -48 196q0 146 47 204q42 52 141 52q72 0 95 -46q4 -11 9 -22q2 1 2 5q0 7 -2 19t-2.5 21t-2.5 181q0 13 -3 17t-16 4q-16 0 -37 -3q3 12 3 18
t-3 18q37 -3 79 -3q67 0 128 6q-8 -193 -8 -368q0 -156 7 -293q1 -20 16 -20q17 0 37 5q-3 -12 -3 -17q0 -7 3 -19zM315 274q0 92 -13 132q-18 55 -69 55q-39 0 -50 -33q-14 -39 -14 -176q0 -139 19 -184q16 -36 61 -36q40 0 55 60q10 40 10 123q0 10 1 30v29z" />
    <glyph glyph-name="e" unicode="e" horiz-adv-x="442" 
d="M427 263q-95 7 -237 7q-20 0 -20 -12q0 -13 1 -45q4 -119 31 -158q21 -30 76 -30q93 0 114 109q12 -13 34 -14q-27 -133 -182 -133q-113 0 -165 57q-54 61 -54 199q0 253 216 253q99 0 142 -56t44 -177zM296 377q0 94 -63 94q-61 0 -61 -167q0 -9 6 -9q24 0 95 8
q19 2 21 12t2 62z" />
    <glyph glyph-name="f" unicode="f" horiz-adv-x="297" 
d="M392 636q0 -24 -16.5 -42t-41.5 -18t-44 17.5t-19 49.5v25q0 20 -30 20q-26 0 -33 -24q-6 -19 -6 -86v-81q0 -13 18 -13q12 0 64 3q-3 -18 -3 -20t3 -17q-32 3 -71 3q-11 0 -11 -8q-2 -69 -2 -88q0 -159 7 -311q1 -13 19 -13q10 0 28 2q-3 -15 -3 -19q0 -1 4 -17
q-61 5 -128 5q-66 0 -117 -5q3 12 3 20q0 6 -2 16q24 -2 33 -2q15 0 15 13q2 70 2 240q0 61 -2 160q0 7 -11 7q-17 0 -38 -3q3 12 3 20q0 7 -2 17q32 -4 40 -4t8 7v82q0 67 51 105q48 35 124 35q158 0 158 -76z" />
    <glyph glyph-name="g" unicode="g" horiz-adv-x="497" 
d="M490 443q0 -21 -12 -36.5t-31 -15.5q-36 0 -36 43q0 3 1.5 9t1.5 9q0 10 -10 10q-24 0 -24 -25q0 -2 4 -10q22 -45 22 -89q0 -70 -43 -114q-48 -49 -140 -49q-69 0 -97 19q-6 4 -12 4q-10 0 -30 -10q-25 -13 -25 -29q0 -30 76 -30q8 0 78.5 -1t82.5 -1q75 0 119 -42
q47 -45 47 -112q0 -46 -24.5 -86.5t-68.5 -61.5q-57 -27 -151 -27q-88 0 -145 28q-68 33 -68 96q0 35 31.5 61.5t77.5 28.5q5 0 5 5q0 1 -33 8q-78 17 -78 99q0 43 29 64l44 22q8 4 8 7q0 4 -5 7q-20 13 -34 44t-14 65q0 66 41 110q50 53 147 53q74 0 126 -34q8 -5 10 -5
q5 2 9 9q20 31 61 31q60 0 60 -54zM269 345q0 73 -12 101q-10 25 -35 25q-28 0 -38 -24q-11 -27 -11 -110t13 -112q10 -22 36 -22q38 0 46 57q1 7 1 85zM395 -76q0 54 -64 69q-33 8 -105 8q-50 0 -69 -2q-41 -4 -59 -19q-22 -17 -22 -54q0 -46 41.5 -73t116.5 -27
q161 0 161 98z" />
    <glyph glyph-name="h" unicode="h" horiz-adv-x="540" 
d="M530 -1q-71 7 -143 7q-62 0 -108 -7q3 8 3 19q0 10 -3 18q20 -5 32 -5q17 0 18 16q4 91 4 214q0 84 -6 136q-5 42 -41 42q-38 0 -58 -38q-27 -51 -27 -148q0 -119 4 -206q1 -17 18 -17q10 0 37 6q-2 -8 -2 -20t2 -17q-46 7 -112 7q-69 0 -138 -7q2 9 2 20q0 10 -2 17
q27 -6 32 -6q15 0 16 18q4 82 4 190q0 305 -4 423q-1 18 -14 18q-15 0 -36 -5q3 8 3 17t-3 17q32 -2 66 -2q63 0 134 6l-2 -234q0 -13 -2.5 -33t-2.5 -27t2 -8q4 0 6 6q7 23 27 43q38 37 99 37q71 0 104 -35q38 -40 38 -132v-71q-1 -47 -1 -71q0 -78 3 -141q1 -16 20 -16
q11 0 31 6q-2 -8 -2 -20q0 -11 2 -17z" />
    <glyph glyph-name="i" unicode="i" horiz-adv-x="278" 
d="M221 632q0 -40 -23 -62.5t-55 -22.5t-54 21q-25 24 -25 64q0 39 25 61q22 21 54 21t54 -20q24 -23 24 -62zM268 -1q-71 7 -135 7q-58 0 -123 -6q3 13 3 19q0 7 -3 17q20 -6 35 -6q20 0 21 24q5 111 5 195q0 85 -5 190q-1 19 -18 19q-14 0 -38 -3q3 10 3 16q0 5 -3 18
q45 -4 87 -4q56 0 119 6q-5 -136 -5 -249q0 -102 4 -188q1 -23 16 -23q9 0 37 5q-3 -12 -3 -19q0 -6 3 -18z" />
    <glyph glyph-name="j" unicode="j" horiz-adv-x="278" 
d="M216 632q0 -40 -23 -62.5t-55 -22.5t-54 21q-25 24 -25 64q0 39 25 61q22 21 54 21t54 -20q24 -23 24 -62zM221 490q-5 -103 -5 -251v-235q0 -135 -200 -203q-4 16 -16 28q18 4 45 18q17 19 22 63q6 58 6 243q0 230 -5 281q-2 24 -17 24q1 0 -37 -5q3 9 3 16t-3 16h76
q84 0 131 5z" />
    <glyph glyph-name="k" unicode="k" horiz-adv-x="544" 
d="M534 -1q-57 5 -127 5q-65 0 -128 -5q3 12 3 17q0 3 -3 18q24 -3 29 -3q8 0 10 9q-4 16 -20 44q-11 23 -33 60q-25 40 -34 57q-12 23 -24 23q-4 0 -4 -9v-16q0 -79 2 -151q0 -17 18 -17l37 4q-3 -12 -3 -19q0 -8 3 -17q-52 5 -119 5q-68 0 -131 -5q3 8 3 18t-3 19
q24 -6 32 -6q15 0 16 17q5 107 5 335q0 185 -5 278q-1 18 -14 18q-14 0 -34 -4q3 9 3 15q0 5 -3 17q19 -1 57 -1q86 0 139 5q-4 -76 -4 -313q0 -21 1 -67v-66q0 -10 10 -10q14 0 21 13q58 103 86 167q3 7 3 12q0 10 -13 10q-8 0 -40 -3q4 6 4 15q0 8 -3 19q71 -5 90 -5
q20 0 88 5q-2 -9 -2 -17q0 -10 3 -18q-29 5 -44 5q-14 0 -27 -17q-53 -71 -53 -102q0 -14 10 -36q14 -30 67 -124t73 -123q15 -22 29 -22q5 0 29 1q-3 -9 -3 -19t3 -16z" />
    <glyph glyph-name="l" unicode="l" horiz-adv-x="270" 
d="M260 -1q-63 6 -119 6t-131 -6q3 6 3 17t-3 18q24 -6 32 -6q15 0 16 18q5 104 5 334q0 180 -5 277q-1 21 -13 21q10 0 -35 -4q3 9 3 15q0 5 -3 17h31q20 -1 29 -1q80 0 141 5q-4 -76 -4 -313q0 -234 3 -350q0 -16 15 -16q16 0 35 4q-3 -12 -3 -19q0 -8 3 -17z" />
    <glyph glyph-name="m" unicode="m" horiz-adv-x="832" 
d="M821 -1q-61 5 -131 5q-79 0 -130 -5q3 9 3 17t-3 20q31 -6 41 -6q15 0 16 21q5 97 5 240q0 76 -3 110q-3 39 -48 39q-21 0 -41 -9q-29 -13 -37 -47q-2 -9 -5 -61t-3 -133q0 -55 3 -139q1 -21 17 -21q11 0 39 6q-3 -11 -3 -20t3 -17q-55 8 -125 8q-74 0 -137 -8q3 9 3 18
q0 10 -3 19q34 -6 39 -6q18 0 19 23q3 73 3 172t-3 177q-1 38 -50 38q-54 0 -69 -48q-16 -56 -16 -190q0 -84 4 -156q1 -16 20 -16q10 0 34 6q-2 -11 -2 -19t2 -18q-52 7 -130 7q-51 0 -122 -7q3 14 3 19q0 9 -4 18q20 -7 32 -7q16 0 17 15q4 79 4 191q0 108 -4 197
q-1 23 -16 23q-4 0 -15.5 -1.5t-17.5 -2.5q2 5 2 14q0 8 -2 18h30q19 -1 27 -1q66 0 139 6q-1 -6 -5 -39q-3 -25 -3 -39q0 -5 1 -5q3 1 4 2q2 9 8 25q39 64 121 64q112 0 133 -62q4 -10 4 -24q0 -2 2 -5q3 1 4 4q1 8 7 24q38 61 136 61q79 0 113.5 -33t34.5 -109
q0 -39 -1.5 -116t-1.5 -116q0 -20 3 -70q1 -20 19 -20q13 0 36 6q-3 -9 -3 -18q0 -10 3 -19z" />
    <glyph glyph-name="n" unicode="n" horiz-adv-x="538" 
d="M528 -1q-71 7 -138 7q-62 0 -108 -7q3 7 3 17q0 11 -3 20q21 -6 30 -6q14 0 15 14q4 74 4 180q0 123 -6 173q-5 43 -44 43t-54 -40q-19 -49 -19 -194q0 -154 6 -169q3 -7 15 -7q13 0 34 6q-3 -8 -3 -18q0 -11 3 -19q-46 7 -114 7q-70 0 -139 -7q4 7 4 18t-4 19
q29 -7 36 -7q19 0 20 16q4 81 4 191q0 113 -4 199q-1 19 -12 19q3 0 -43 -5q3 8 3 16q0 7 -3 19q49 -3 59 -3q53 0 136 7q-5 -74 -5 -62q0 -13 1 -18q-1 0 3 -1q1 0 2 3q12 42 50 65q34 21 81 21q137 0 137 -166v-77q-1 -52 -1 -77q0 -77 3 -135q1 -13 18 -13q11 0 33 7
q-3 -7 -3 -19q0 -11 3 -17z" />
    <glyph glyph-name="o" unicode="o" horiz-adv-x="480" 
d="M455 241q0 -138 -57 -199q-51 -55 -158 -55q-113 0 -164 58t-51 193q0 134 53 196t168 62q111 0 160 -60.5t49 -194.5zM313 240q0 144 -17 192q-14 37 -50 37q-41 0 -56 -34q-22 -49 -22 -200q0 -136 18 -185q15 -38 51 -38q39 0 55 36q21 50 21 192z" />
    <glyph glyph-name="p" unicode="p" horiz-adv-x="510" 
d="M485 240q0 -137 -44 -195.5t-139 -58.5q-61 0 -82 34q-2 7 -7 21q-1 2 -4 3q-2 -3 -2 -8q0 -4 3 -33q0 -120 3 -181q1 -18 21 -18q7 0 30 5q-2 -8 -2 -19q0 -10 2 -18q-53 8 -113 8q-59 0 -137 -8q2 9 2 18q0 7 -2 18q2 0 16 -3q11 -2 17 -2q19 0 19 17q4 166 4 319
q0 164 -7 285q-2 28 -18 28q-4 0 -16 -2t-19 -3q3 8 3 17q0 10 -3 19q40 -3 50 -3q67 0 154 9q-1 -6 -5 -32q-3 -20 -3 -31q0 -5 2 -6q4 2 6 7q5 14 17 37q29 32 88 32q88 0 125 -53q41 -58 41 -203zM340 223q0 153 -18 201q-12 33 -48 33q-37 0 -54 -83q-10 -49 -10 -154
q0 -86 9 -128q15 -69 57 -69q38 0 49 29q15 38 15 171z" />
    <glyph glyph-name="q" unicode="q" horiz-adv-x="484" 
d="M484 -212q-53 8 -113 8q-59 0 -137 -8q2 9 2 18q0 7 -2 18q2 0 16 -3q11 -2 17 -2q17 0 19 27.5t4 181.5q1 10 3 31q-1 5 -3 5q-3 0 -5 -7q-4 -17 -15 -28q-36 -38 -85 -38q-89 0 -127 50q-43 58 -43 203q0 136 43 196q42 57 135 57q72 0 96 -52q8 -17 10 -17q10 0 17 67
q73 -8 99 -8q18 0 28 1q-3 -15 -8 -63q-7 -157 -7 -301q0 -138 9 -278q1 -19 3.5 -22.5t13.5 -3.5q7 0 30 5q-2 -8 -2 -19q0 -10 2 -18zM290 276q0 93 -13 133q-16 48 -58 48q-36 0 -48 -33q-15 -41 -15 -170q0 -154 16 -195q10 -28 48 -28q70 0 70 245z" />
    <glyph glyph-name="r" unicode="r" horiz-adv-x="415" 
d="M412 408q0 -43 -23 -66.5t-53 -23.5q-27 0 -46 18.5t-19 51.5q0 6 1 18.5t1 18.5q0 4 -3 5q-14 0 -30 -39q-15 -34 -20 -70q-6 -39 -6 -144q0 -70 3 -130q1 -17 19 -17q8 0 36 6q-3 -8 -3 -18q0 -12 3 -19q-40 6 -124 6q-78 0 -137 -6q3 8 3 17q0 11 -4 20q24 -6 44 -6
q15 0 16 17q4 81 4 189q0 106 -4 194q-1 23 -22 23q7 0 -38 -4q3 9 3 16t-3 19q28 -3 67 -3q80 0 144 7q-2 -20 -6 -62q0 -6 -1.5 -13t-1.5 -9q0 -5 1 -5q3 1 5 6.5t7 18.5q41 72 103 72q84 0 84 -88z" />
    <glyph glyph-name="s" unicode="s" horiz-adv-x="394" 
d="M375 155q0 -165 -183 -165q-96 0 -173 33q4 25 4 44q0 16 -9 122q5 -2 15 -2t15 2q4 -65 42 -113q42 -54 104 -54q37 0 58 21.5t21 56.5q0 49 -64 76q-59 25 -119 50q-64 39 -64 114q0 72 47.5 113.5t128.5 41.5q85 0 148 -29q-10 -47 -10 -89q0 -23 4 -48q-8 2 -15 2
q-5 0 -10 -1q-7 46 -34 85q-36 51 -86 51q-71 0 -71 -71q0 -44 65 -71q120 -52 121 -53q65 -41 65 -116z" />
    <glyph glyph-name="t" unicode="t" horiz-adv-x="312" 
d="M313 86q-10 -52 -30 -72q-24 -23 -76 -23q-79 0 -110 21.5t-31 75.5q0 55 1 178.5t1 178.5q0 8 -6 8q9 0 -52 -4q3 12 3 17q0 8 -3 20q26 -4 40 -4q18 0 18 10q0 40 -5 50q19 2 71 32t67 46l9 -3q-1 -50 -1 -121q0 -13 13 -13q43 0 80 3q-3 -9 -3 -18q0 -10 3 -19
q-49 4 -80 4q-12 0 -12 -10v-99q-1 -98 -1 -109v-95q0 -71 6 -88q9 -25 31 -25q30 0 31 69q12 -8 36 -10z" />
    <glyph glyph-name="u" unicode="u" horiz-adv-x="547" 
d="M537 -1q-37 4 -79 4q-65 0 -138 -8q2 19 8 43q4 20 4 21q0 5 -3 6q-3 0 -5 -3q-3 -7 -11 -21q-39 -49 -120 -49q-72 0 -103.5 35.5t-31.5 125.5q0 27 1 80v79q0 85 -3 128q-1 13 -13 13q-9 0 -33 -6q3 9 3 19q0 9 -3 18q57 -6 123 -6q29 0 74 2q-4 -82 -4 -166v-52
q-1 -37 -1 -57q0 -106 12 -137q8 -22 34 -22q30 0 54 34q34 50 34 158v25q-1 15 -1 20q0 44 -5 150q-1 21 -18 21q2 0 -37 -7q3 12 3 19q0 6 -3 18q49 -6 105 -6q43 0 98 4q-5 -170 -5 -235q0 -111 4 -198q1 -21 20 -21q1 0 40 7q-3 -7 -3 -17q0 -11 3 -19z" />
    <glyph glyph-name="v" unicode="v" horiz-adv-x="484" 
d="M473 448q-27 7 -37 7q-15 0 -33 -49q-31 -79 -63 -157q-45 -118 -88 -260q-10 4 -19 4q-8 0 -15 -4q-35 110 -163 449q-6 16 -19 16q-4 0 -12.5 -2t-13.5 -2q3 9 3 15t-3 18q49 -3 124 -3q78 0 136 3q-2 -8 -2 -14q0 -7 3 -19q-23 6 -39 6q-14 0 -14 -12q0 -26 24 -95
q13 -34 45 -121q3 -7 3 -16q0 -3 5 -9q2 -1 5 8q3 19 6 27q18 53 37 105q18 56 18 88q0 22 -18 22q-9 0 -31 -4q3 12 3 17q0 6 -3 18q47 -4 81 -4q35 0 80 4q-3 -7 -3 -19q0 -11 3 -17z" />
    <glyph glyph-name="w" unicode="w" horiz-adv-x="763" 
d="M753 448q-27 7 -35 7q-17 0 -35 -49q-32 -79 -63 -157q-46 -118 -89 -260q-10 4 -19 4q-8 0 -15 -4q-31 98 -113 320q-2 9 -7 26q-2 6 -4 6q-3 0 -4.5 -7t-5.5 -21q-14 -35 -48 -125q-22 -60 -64 -199q-10 4 -19 4q-8 0 -15 -4q-41 128 -162 449q-6 16 -19 16
q-12 0 -26 -4q3 6 3 16q0 11 -3 17q49 -3 124 -3q78 0 136 3q-2 -8 -2 -14q0 -7 3 -19q-7 1 -23 4q-10 2 -16 2q-14 0 -14 -12q0 -26 24 -95q13 -34 45 -121q3 -7 3 -16q0 -3 5 -9q2 -1 5 8q3 19 6 27q17 42 47 119q3 8 3 17q0 8 -5 21l-16 43q-6 16 -19 16q-4 0 -12.5 -2
t-13.5 -2q3 9 3 18q0 8 -3 15q49 -3 124 -3q78 0 136 3q-2 -8 -2 -14q0 -7 3 -19q-27 6 -39 6q-14 0 -14 -12q0 -26 24 -95q13 -34 45 -121q3 -7 3 -16q0 -3 5 -9q2 -1 5 8q3 19 6 27q18 53 37 105q18 56 18 88q0 22 -18 22q-9 0 -31 -4q3 12 3 17q0 6 -3 18q47 -4 81 -4
q35 0 80 4q-3 -7 -3 -19q0 -11 3 -17z" />
    <glyph glyph-name="x" unicode="x" horiz-adv-x="484" 
d="M474 0q-54 3 -127 3t-122 -3q2 5 2 14q0 11 -2 19q5 0 14 -1.5t13 -1.5q15 0 15 7q0 18 -50 116q-3 10 -9 26q-3 7 -5 7l-6 -9q-51 -76 -68 -123q-4 -8 -4 -17q0 -6 15 -6q6 0 19 1t19 1q-3 -12 -3 -17q0 -6 3 -16q-53 4 -89 4q-42 0 -81 -5q3 12 3 20q0 6 -2 16l5 -1
q11 -2 16 -2q21 0 33.5 10.5t50.5 61.5q2 2 56 89q10 16 10 24q0 11 -7 24q-64 121 -108 194q-10 17 -23 17q-12 0 -32 -3q2 11 2 18q0 8 -2 16q61 -3 139 -3q75 0 127 3q-3 -13 -3 -18q0 -6 3 -15q-5 0 -18.5 1.5t-20.5 1.5q-15 0 -15 -6q0 -14 45 -101q3 -10 8 -20
q5 -2 4 -2q1 0 12 18q61 99 61 108q0 3 -6 3q-15 0 -38 -3q4 7 4 16t-4 18q34 -5 74 -5q24 0 83 5q-2 -7 -2 -18t2 -16q-9 0 -18.5 1t-12.5 1q-16 0 -26.5 -8.5t-45.5 -51.5q-17 -25 -53 -75q-11 -15 -11 -23q0 -9 9 -26l80 -154q10 -18 40 -66q11 -17 28 -17q6 0 19 2
q-2 -10 -2 -17q0 -8 2 -16z" />
    <glyph glyph-name="y" unicode="y" horiz-adv-x="499" 
d="M489 449q-16 4 -27 4q-18 0 -25 -12q-15 -25 -48 -115q-30 -80 -39 -112q-27 -73 -87 -267q-21 -79 -36 -107q-32 -58 -89 -58q-45 0 -70 23q-21 21 -21 52q0 29 19 51t49 22q26 0 42 -19q19 -22 19 -63q0 -16 8 -16q6 0 14 16q15 30 38 123q3 12 3 27q0 25 -7 44
q-49 130 -86 214q-42 92 -85 185q-6 12 -17 12q-7 0 -34 -6q3 8 3 17q0 10 -3 20q73 -7 151 -7q73 0 123 7q-3 -9 -3 -20q0 -10 3 -17q-37 6 -39 6q-12 0 -12 -6q0 -16 32 -96q11 -27 41 -96q8 -17 9 -40q0 -6 2 -6q4 0 6 11t5 25q15 48 29 97q20 67 20 94q0 18 -18 18
q-12 0 -32 -4q3 5 3 17t-3 17q37 -4 85 -4q44 0 76 4q-2 -6 -2 -15q0 -12 3 -20z" />
    <glyph glyph-name="z" unicode="z" horiz-adv-x="414" 
d="M399 194q-4 -45 -4 -93q0 -57 3 -101q-83 3 -192 3q-117 0 -189 -3q-3 12 -7 16q11 16 32 49q75 132 114 218q63 139 74 161l7 8q-2 3 -6 3q-57 0 -80 -6q-27 -6 -47 -28q-29 -31 -30 -111q-12 3 -31 3q3 31 3 81q0 51 -3 89q80 -3 182 -3t168 3q0 -5 4 -16
q-56 -86 -117 -220q-29 -67 -92 -201q-2 -5 -6 -8.5t-4 -6.5q0 -2 6 -2q3 0 7 1h5q54 0 72 3q40 6 64 28q33 31 36 132q7 -2 13 -2q8 0 18 3z" />
    <glyph glyph-name="braceleft" unicode="{" horiz-adv-x="271" 
d="M255 -261q-114 8 -146 42t-32 156v115q0 107 -12 137q-11 27 -48 27q3 5 3 12q0 9 -4 16q38 0 48 22q12 27 12 127v117q0 130 33 168q31 35 146 44q-2 -7 -2 -18q0 -9 2 -12q-49 0 -65 -25q-19 -31 -19 -129v-110q0 -173 -63 -192q-4 -1 -14.5 -3t-10.5 -3t11 -3
q19 -3 28 -10q34 -27 45 -89q5 -33 5 -104v-102q0 -103 19 -132q14 -22 64 -22q-2 -5 -2 -15q0 -9 2 -14z" />
    <glyph glyph-name="bar" unicode="|" horiz-adv-x="155" 
d="M108 -251q-18 2 -33 2q-14 0 -28 -2q6 180 6 458q0 292 -6 544q21 -3 32 -3q8 0 29 3q-7 -234 -7 -544q0 -289 7 -458z" />
    <glyph glyph-name="braceright" unicode="}" horiz-adv-x="271" 
d="M254 216q-37 0 -48 -27q-12 -30 -12 -137v-115q0 -122 -32 -156t-146 -42q3 9 3 15q0 5 -3 14q50 0 64 22q19 29 19 132v102q0 71 5 104q11 62 45 89q9 7 28 10q5 0 11 3q0 1 -10.5 3t-28.5 10q-34 28 -44 101q-5 33 -5 113v81q0 98 -19 129q-16 25 -65 25q3 6 3 15
t-3 15q115 -9 146 -44q33 -38 33 -168v-117q0 -101 11 -127q10 -22 48 -22q-3 -7 -3 -14q0 -8 3 -14z" />
    <glyph glyph-name="asciitilde" unicode="~" horiz-adv-x="580" 
d="M492 301q-55 -77 -115 -77q-32 0 -91 32.5t-87 32.5t-52 -30q-6 -9 -27 -37q-11 43 -32 61q48 80 110 80q37 0 97.5 -32.5t81.5 -32.5q38 0 84 66q10 -43 31 -63z" />
    <glyph glyph-name="uni00A0" unicode="&#xa0;" 
 />
    <glyph glyph-name="exclamdown" unicode="&#xa1;" horiz-adv-x="227" 
d="M170 416q0 -33 -23.5 -56.5t-57.5 -23.5t-58 23.5t-24 56.5t24 57t58 24t57.5 -24t23.5 -57zM179 -134q0 -46 -29 -72q-25 -24 -63 -24t-65 24q-30 26 -30 70q0 25 20 141q9 41 29 136q22 106 23 157q8 -2 21 -2q15 0 24 3q1 -47 22 -149q12 -55 30 -145q18 -109 18 -139
z" />
    <glyph glyph-name="cent" unicode="&#xa2;" horiz-adv-x="491" 
d="M472 161q-38 -153 -162 -169q-17 -2 -17 -10q0 -32 2 -83q-18 3 -20 3q-3 0 -21 -3q3 74 3 83q0 8 -16 10q-197 21 -197 247q0 108 50 173q51 69 150 80q13 2 13 12q0 7 -3 96q15 -3 20 -3q6 0 21 3q-3 -92 -3 -99q0 -8 12 -8q71 -3 114 -37q49 -37 49 -103
q0 -35 -19.5 -54.5t-46.5 -19.5q-28 0 -47 20q-22 22 -22 59v44q0 62 -35 62q-5 0 -5 -16v-92q-1 -64 -1 -98q0 -37 1 -112v-112q0 -11 7 -11q109 0 136 152q14 -14 37 -14zM259 28l-1 4.5t-1 7.5v408q0 15 -5 15q-35 0 -49.5 -53t-14.5 -177q0 -206 69 -206q2 0 2 1z" />
    <glyph glyph-name="sterling" unicode="&#xa3;" horiz-adv-x="519" 
d="M489 192q0 -113 -37.5 -162.5t-127.5 -49.5q-42 0 -73 23q-16 12 -52 54q-10 12 -15 12t-11 -6q-21 -22 -42 -43q-26 -24 -53 -24q-35 0 -54 20.5t-19 48.5q0 27 18 48t49 21q29 0 56.5 -19t35.5 -19q18 0 18 51q0 49 -23 113q-29 81 -29 82q-2 12 -6.5 14.5t-21.5 2.5
q-35 0 -69 -5q3 12 3 20q0 7 -3 22q20 -4 61 -4q25 0 25 10q0 1 -2.5 20.5t-2.5 37.5q0 122 86 191q67 53 137 53q64 0 99 -30q31 -25 31 -63q0 -32 -19.5 -50.5t-46.5 -18.5q-26 0 -45 19t-19 54q0 8 3 22t3 21q0 16 -28 16q-78 0 -78 -87q0 -46 14 -105q10 -36 20 -73
q4 -17 27 -17h18q20 0 57 4q-3 -8 -3 -20q0 -13 3 -22q-62 5 -75 5q-15 0 -15 -5t4 -17q16 -50 16 -88q0 -90 -87 -147q-12 -8 -12 -11q0 -4 21 -6q27 -3 63 -3q104 0 137.5 22t33.5 88q0 33 -12 59q11 -3 21 -3q9 0 19 3q2 -32 2 -59z" />
    <glyph glyph-name="currency" unicode="&#xa4;" horiz-adv-x="487" 
d="M400 189q-18 -14 -33 -32q-6 8 -39 46q-3 3 -6 3q-1 0 -4 -2q-39 -28 -87 -28q-49 0 -88 28q-4 3 -5 3q-2 0 -6 -4q-15 -16 -39 -44q-20 25 -32 33q1 1 45 39q3 3 3 6q0 2 -1 3q-29 39 -29 88q0 48 27 86q3 4 3 6q0 4 -3 7q-12 12 -44 38q19 15 32 32q12 -15 37 -42
q5 -5 7 -5q-3 0 29 15t64 15q48 0 86 -27q4 -3 7 -3q1 0 6 5q24 26 37 43q16 -21 33 -34q-47 -37 -47 -44q0 -2 2 -4q28 -39 28 -87q0 -33 -15 -63.5t-15 -29.5q0 -7 47 -47zM347 329q0 51 -34 84t-82 33t-82 -33.5t-34 -83.5t34 -84t83 -34q48 0 81.5 33.5t33.5 84.5z" />
    <glyph glyph-name="yen" unicode="&#xa5;" horiz-adv-x="580" 
d="M570 672q-30 4 -37 4q-10 0 -21 -18q-27 -46 -104 -221q-9 -20 -9 -17q0 -1 3 -1h5q4 1 5 1q54 3 100 4q-3 -21 -3 -22q0 -2 3 -20q-78 5 -114 5q-18 0 -21 -21q-1 -3 -1 -36q0 -37 12 -37q45 0 124 4q-3 -10 -3 -22q0 -11 3 -20q-66 5 -123 5q-13 0 -13 -21
q0 -61 6 -187q1 -21 20 -21q6 0 19 1q17 2 27 3q-2 -6 -2 -15q0 -12 4 -21q-64 5 -144 5q-65 0 -152 -4q3 9 3 16q0 9 -4 19q45 -4 44 -4q20 0 21 19q3 72 3 161q0 37 -2 43.5t-13 6.5q-71 0 -138 -6q3 18 3 21t-3 21q76 -5 142 -5q10 0 10 12v45q0 22 -1 26q-4 11 -21 11
q-95 0 -132 -4q5 12 5 20q0 4 -3 22q35 -2 110 -4q9 -2 13 -2q5 0 5 2q0 -3 -11 19q-70 138 -120 224q-7 12 -21 12q-1 0 -34 -3q3 12 3 17q0 6 -3 17q62 -3 144 -3q86 0 145 3q-3 -13 -3 -18q0 -6 3 -16q-26 2 -39 2q-12 0 -12 -4q0 -18 26 -77q8 -17 75 -156
q12 -24 11 -24q2 0 7 11q90 207 90 244q0 7 -13 7q-4 0 -16 -1.5t-20 -1.5q2 10 2 18q0 7 -2 17q37 -4 74 -4q48 0 88 3q-3 -13 -3 -19q0 -7 3 -15z" />
    <glyph glyph-name="brokenbar" unicode="&#xa6;" horiz-adv-x="155" 
d="M108 317q-24 7 -30 7q-7 0 -31 -7q6 89 6 196q0 89 -7 163q18 -4 30 -4q14 0 32 4q-4 -63 -4 -174q0 -126 4 -185zM108 -176q-18 4 -32 4q-12 0 -30 -4q7 74 7 163q0 107 -6 196q24 -7 31 -7q6 0 30 7q-4 -59 -4 -185q0 -111 4 -174z" />
    <glyph glyph-name="section" unicode="&#xa7;" horiz-adv-x="474" 
d="M469 77q0 -143 -74 -220q-69 -71 -187 -71q-103 0 -156 44q-47 38 -47 102q0 37 23 60t52 23q28 0 47 -22q21 -25 21 -70q0 -10 -1 -31.5t-1 -32.5q0 -23 9 -31q14 -12 58 -12q67 0 107.5 33t40.5 90q0 44 -44 86q-5 5 -85 66q-124 95 -160 141q-67 84 -67 206
q0 115 60 191q69 88 193 88q92 0 141 -37q46 -35 46 -95q0 -38 -22.5 -59.5t-51.5 -21.5q-27 0 -46.5 19t-19.5 55q0 13 2.5 40t2.5 40q0 17 -7 23q-11 9 -46 9q-61 0 -95.5 -29t-34.5 -74q0 -56 77 -121q62 -47 125 -93q25 -20 38 -33q102 -102 102 -263zM420 30
q0 94 -46 159q-30 43 -163 145q-61 47 -89 87q-35 50 -35 109q0 27 1 44q0 3 1 6.5t1 4.5q-2 3 -5 3q-25 0 -25 -108q0 -79 51 -143q38 -48 149 -132q68 -52 95 -88q42 -57 42 -133q0 -7 -1 -21.5t-1 -21.5q0 -2 3 -3q22 0 22 92z" />
    <glyph glyph-name="dieresis" unicode="&#xa8;" 
d="M229 616q0 -25 -15.5 -38.5t-36.5 -13.5t-36 13.5t-15 38.5t15 39t36 14t36.5 -14t15.5 -39zM67 616q0 -25 -15.5 -38.5t-36.5 -13.5t-36 13.5t-15 38.5t15 39t36 14t36.5 -14t15.5 -39z" />
    <glyph glyph-name="copyright" unicode="&#xa9;" horiz-adv-x="754" 
d="M737 352q-1 -149 -105 -252t-257 -103q-145 0 -250 99q-110 103 -110 257q0 152 108 255q105 101 253 101q155 0 258.5 -105t102.5 -252zM705 352q1 135 -93.5 232t-233.5 97q-138 0 -234.5 -97t-96.5 -231q0 -136 96.5 -232t232.5 -96q138 0 233 96t96 231zM563 133
q-7 -1 -67 -21q-54 -18 -108 -18q-117 0 -185 78q-64 73 -64 190q0 110 68 176.5t180 66.5q50 0 98 -15q20 -8 61 -17q-3 -21 -3 -47q0 -57 11 -108q-16 0 -30 -7q-36 161 -138 161q-52 0 -71 -33q-24 -43 -24 -170q0 -154 23 -203q19 -41 77 -41q56 0 93 47q35 44 43 116
q7 -2 31 -5q-5 -28 -5 -55q0 -46 10 -95z" />
    <glyph glyph-name="ordfeminine" unicode="&#xaa;" horiz-adv-x="334" 
d="M330 393q-40 -6 -82 -6q-59 0 -59 40q0 1 1 3v3q0 2 -3 2q-1 0 -3 -8t-8 -14q-26 -27 -72 -27q-89 0 -89 87q0 69 121 99q46 11 46 28v16q0 50 -4.5 61t-24.5 11q-18 0 -18 -14v-35q0 -21 -18 -34t-39 -13q-43 0 -43 42q0 39 29.5 58.5t104.5 19.5q114 0 114 -103v-167
q0 -23 13 -23q9 0 32 9q-1 -5 -1 -12q0 -11 3 -23zM184 563q0 2 -2 2q-12 0 -33 -11.5t-26 -26.5t-5 -54q0 -50 19 -50q39 0 44 64q1 13 1 36v30q0 3 1 6.5z" />
    <glyph glyph-name="guillemotleft" unicode="&#xab;" horiz-adv-x="363" 
d="M352 117q-17 -7 -28 -27q-17 28 -54 68q-35 33 -105 107q19 24 51 55q44 42 54 53q37 40 54 68q11 -20 28 -27q-44 -41 -55 -65.5t-11 -82.5t11 -83t55 -66zM192 414q-44 -41 -55 -65.5t-11 -82.5q0 -57 10 -80q11 -26 53 -66q-13 -8 -25 -30q-17 28 -54 68
q-35 33 -105 107q19 24 51 55q44 42 54 53q37 40 54 68q11 -20 28 -27z" />
    <glyph glyph-name="logicalnot" unicode="&#xac;" horiz-adv-x="613" 
d="M593 -2q-9 5 -26 5q-20 0 -36 -5q5 71 5 161q0 53 -2 92q-1 13 -13 13q-120 4 -239 4q-123 0 -269 -7q5 12 5 30q0 17 -4 30q200 -4 313 -4q129 0 265 4q-6 -71 -6 -162q0 -95 7 -161z" />
    <glyph glyph-name="uni00AD" unicode="&#xad;" horiz-adv-x="527" 
d="M510 266q-73 4 -228 4q-141 0 -265 -4q4 15 4 24q0 10 -4 27q93 -4 265 -4q155 0 228 4q-4 -15 -4 -24q0 6 4 -27z" />
    <glyph glyph-name="registered" unicode="&#xae;" horiz-adv-x="242" 
d="M248 598q0 -53 -36.5 -89.5t-89.5 -36.5q-51 0 -89 36t-38 90t37.5 90.5t89.5 36.5q54 0 90 -37t36 -90zM229 598q0 45 -30.5 76t-75.5 31t-76.5 -31t-31.5 -76t31.5 -76t75.5 -31q45 0 76 31.5t31 75.5zM199 561q-7 -37 -28 -37q-22 0 -32 40q-5 22 -7 24q-4 7 -17 7
q-11 0 -11.5 -7t-0.5 -18q0 -22 3 -27t16 -7q-2 -4 -2 -8q0 -1 1 -3q-6 0 -15.5 1t-14.5 1t-13 -1t-14 -1v3q0 5 -2 7q11 2 14 5.5t3 17.5q2 18 2 36q0 -6 -2 50q-1 15 -17 16q3 3 3 9v2q-1 0 -1 1q11 0 19 -1t9 -1q2 0 18.5 1t19.5 1q51 0 51 -35q0 -27 -26 -34l-6.5 -1
t-6.5 -2q0 -2 5.5 -3t6.5 -2q10 -9 14 -30.5t9 -21.5q8 0 12 20q2 -2 7 -2h3zM152 637q0 23 -26 23q-15 0 -18.5 -3.5t-3.5 -18.5v-21q0 -8 11 -8q37 0 37 28z" />
    <glyph glyph-name="macron" unicode="&#xaf;" horiz-adv-x="294" 
d="M286 594q-75 5 -131 5q-79 0 -148 -4q3 12 3 20q0 9 -3 19q52 -2 146 -2q89 0 132 2q-4 -7 -4 -19q0 -13 5 -21z" />
    <glyph glyph-name="degree" unicode="&#xb0;" horiz-adv-x="281" 
d="M271 601q0 -53 -33 -89q-36 -41 -98 -41t-98 41q-32 36 -32 89t33 89q36 41 97 41q62 0 98 -41q33 -36 33 -89zM215 601q0 32 -19.5 55.5t-54.5 23.5t-55 -23t-20 -56q0 -32 19 -54q21 -25 56 -25t54.5 23t19.5 56z" />
    <glyph glyph-name="plusminus" unicode="&#xb1;" horiz-adv-x="531" 
d="M521 375q-192 6 -214 6q-18 0 -18 -16q0 7 7 -221q-18 4 -29 4q-13 0 -31 -6q6 201 6 225q0 14 -17 14q-40 0 -104 -3q-89 -3 -111 -4q5 13 5 28q0 12 -4 32q192 -6 214 -6q18 0 18 18q0 39 -3 111q-3 81 -3 109q16 -4 31 -4q8 0 29 3q-8 -240 -8 -221q0 -16 21 -16
q1 0 211 6q-3 -24 -3 -30q0 -2 3 -29zM513 0q-77 5 -228 5q-133 0 -265 -5q4 18 4 29t-4 31q99 -5 265 -5q135 0 228 6q-4 -18 -4 -29q0 7 4 -32z" />
    <glyph glyph-name="uni00B2" unicode="&#xb2;" horiz-adv-x="313" 
d="M311 376q-33 -66 -47 -133q-61 5 -143 5q-54 0 -113 -6v11q0 5 -2 15l86 86q61 64 75.5 91.5t14.5 97.5q0 68 -17 88q-12 15 -40 15q-68 0 -68 -90q0 -76 62 -105q-12 -14 -20 -35q-74 61 -74 137q0 61 30 98q35 43 104 43q77 0 111 -32q31 -30 31 -95q0 -74 -80 -140
q-18 -15 -54 -46q-17 -15 -46 -42q-2 -2 -3 -5q5 0 17.5 1.5t19.5 1.5h33q21 -1 26 -1q31 0 42.5 9t22.5 46q14 -12 32 -15z" />
    <glyph glyph-name="uni00B3" unicode="&#xb3;" horiz-adv-x="317" 
d="M299 397q0 -86 -38.5 -123t-123.5 -37q-61 0 -90 33q-20 23 -33 79q16 0 35 14q6 -48 26 -67t61 -19q47 0 47 118q0 71 -4.5 86.5t-26.5 15.5q-38 0 -77 -65q-13 21 -27 29q41 37 112 125q5 8 5 10t-2 2q-1 0 -10 -2q-31 1 -55.5 2.5t-26.5 1.5q-9 0 -14 -12
q-6 -16 -15 -51q-16 14 -33 17q15 32 43 135q51 -5 106 -5q59 0 111 5v-9q0 -7 3 -16q-107 -109 -121 -138q3 0 10.5 2.5t12.5 2.5q66 0 95.5 -31.5t29.5 -102.5z" />
    <glyph glyph-name="acute" unicode="&#xb4;" 
d="M174 687q0 -19 -29 -44q-59 -52 -95 -119q-8 2 -16 2q-7 0 -18 -2q37 108 45 144q6 25 20 32q11 6 41 6q52 0 52 -19z" />
    <glyph glyph-name="mu" unicode="&#xb5;" horiz-adv-x="537" 
d="M527 -4q-27 3 -67 3q-80 0 -144 -7q5 28 5 71q0 3 -1 3q-2 0 -6 -7q-31 -61 -72 -61q-16 0 -39 7q-4 -2 -4 -5q0 -11 1.5 -34t1.5 -35q0 -36 1.5 -64.5t1.5 -44.5q0 -44 -72 -44q-44 0 -53 3q-22 7 -22 39q0 4 1 106t1 182q0 259 -4 331q-1 12 -16 12q-12 0 -30 -5
q3 12 3 20q0 9 -3 18q57 -6 120 -6q32 0 77 2l-5 -277q0 -61 6 -110q6 -52 40 -52q19 0 36 22q21 27 30 76q11 57 11 143q0 41 -5 150q-1 13 -4.5 16t-19.5 3q-10 0 -31 -3q3 12 3 18t-3 18q49 -6 91 -6q57 0 112 4q-5 -172 -5 -237q0 -109 4 -199q1 -14 4 -17.5t16 -3.5
q20 0 40 7q-2 -6 -2 -17q0 -12 2 -19z" />
    <glyph glyph-name="paragraph" unicode="&#xb6;" horiz-adv-x="527" 
d="M488 669q-21 4 -43 4q-20 0 -20 -16q-2 -85 -2 -214v-175q0 -221 4 -437q-10 4 -26 4q-14 0 -23 -3q5 133 5 440v180q0 131 -2 202q0 13 -10 15.5t-50 2.5q-47 0 -57 -3t-10 -19q-4 -144 -4 -405q0 -241 5 -414q-11 3 -26 3q-14 0 -23 -3q0 52 3 193q2 120 2 189
q0 51 -17 59q-2 1 -11 3q-168 40 -168 210q0 221 248 221q5 0 39 -2.5t60 -2.5q62 0 125 6q-2 -5 -2 -17q0 -14 3 -21z" />
    <glyph glyph-name="periodcentered" unicode="&#xb7;" horiz-adv-x="173" 
d="M149 264q0 -25 -16.5 -43.5t-46.5 -18.5t-46.5 18.5t-16.5 43.5t16.5 43.5t46.5 18.5t46.5 -18.5t16.5 -43.5z" />
    <glyph glyph-name="cedilla" unicode="&#xb8;" 
d="M183 -110q0 -87 -94 -87q-23 0 -45 12l-39 26q15 11 18 27q30 -34 56 -34q23 0 31.5 10.5t8.5 48.5q0 35 -10 48q-8 9 -27 9q-35 0 -41 -2q7 25 11 52h40q0 -2 -5 -24q96 0 96 -86z" />
    <glyph glyph-name="uni00B9" unicode="&#xb9;" horiz-adv-x="290" 
d="M260 242q-47 5 -110 5q-69 0 -123 -5q2 7 2 19q0 10 -2 16q28 -2 41 -2q12 0 15.5 2.5t3.5 13.5q1 53 1 108v87q-1 50 -1 61q0 6 1.5 18t1.5 18q0 2 -1 3l-27 -27q-8 -7 -34 -31q-7 18 -20 29q93 67 126 147q21 -3 34 -3t31 3q-2 -60 -2 -167v-130q0 -73 2 -114
q1 -13 3 -15.5t17 -2.5q12 0 40 2q-2 -10 -2 -16q0 -7 3 -19z" />
    <glyph glyph-name="ordmasculine" unicode="&#xba;" horiz-adv-x="328" 
d="M318 547q0 -163 -151 -163q-152 0 -152 161q0 167 155 167q148 0 148 -165zM211 546v85q-7 58 -42 58q-39 0 -46 -56v-89q0 -74 1 -82q8 -53 44 -53t43 55v82z" />
    <glyph glyph-name="guillemotright" unicode="&#xbb;" horiz-adv-x="363" 
d="M359 265q-36 -36 -105 -107q-39 -42 -54 -67q-13 20 -28 26q44 41 55 66.5t11 82.5t-11 81.5t-55 65.5q15 7 28 27q24 -41 106 -118q33 -31 53 -57zM199 265q-36 -36 -105 -107q-39 -42 -54 -67q-13 20 -28 26q44 41 55 66.5t11 82.5t-11 81.5t-55 65.5q15 7 28 27
q24 -41 106 -118q33 -31 53 -57z" />
    <glyph glyph-name="onequarter" unicode="&#xbc;" horiz-adv-x="677" 
d="M669 137q-34 2 -58 2q-8 0 -8 -5q0 -16 1 -45q2 -35 2 -39q0 -18 21 -18q13 0 39 2q-2 -10 -2 -16q0 -7 3 -19q-49 5 -110 5q-67 0 -123 -5q3 12 3 17q0 6 -3 18q46 -3 43 -3q17 0 17 17q2 91 2 79q0 9 -3.5 11t-20.5 2t-51 -1t-53 -1q-3 11 -13 33q89 125 176 286
q10 -2 32 -2q28 0 42 2q-2 -268 -2 -252q0 -29 10 -29q6 0 55 3q-2 -10 -2 -19q0 -11 3 -23zM511 708q-137 -302 -302 -709q-14 4 -27 4q-12 0 -20 -4q168 371 301 708q10 -4 20 -4q8 0 28 5zM252 242q-47 5 -110 5q-69 0 -123 -5q2 7 2 19q0 10 -2 16q28 -2 41 -2
q12 0 15.5 2.5t3.5 13.5q1 53 1 108v87q-1 50 -1 61q0 6 1.5 18t1.5 18q0 2 -4 2q-10 -11 -24 -26q-8 -7 -34 -31q-7 18 -20 29q93 67 126 147q21 -3 34 -3t31 3q-4 -120 -4 -224t4 -187q1 -13 3 -15.5t17 -2.5q12 0 40 2q-2 -10 -2 -16q0 -7 3 -19zM502 331l-5 1
q0 -3 -8 -19q-48 -80 -79 -126q-8 -12 -8 -9q0 -1 3 -1h52h15q10 -1 15 -1q10 0 10 8q0 17 -1 52.5t-1 53.5q0 16 7 41z" />
    <glyph glyph-name="onehalf" unicode="&#xbd;" horiz-adv-x="668" 
d="M673 133q-33 -66 -47 -133q-61 5 -143 5q-54 0 -113 -6v11q0 5 -2 15q50 49 129 134q31 37 40 63q7 23 7 78q0 49 -6 68q-12 35 -51 35q-68 0 -68 -90q0 -76 62 -105q-12 -14 -20 -35q-74 61 -74 137q0 61 30 98q35 43 104 43q77 0 111 -32q31 -30 31 -95q0 -59 -45 -107
q-45 -40 -89 -79q-17 -15 -46 -42q-2 -2 -3 -5q5 0 17.5 1.5t19.5 1.5h33q21 -1 26 -1q31 0 42.5 9t22.5 46q14 -12 32 -15zM499 708q-137 -302 -302 -709q-11 3 -23 3t-23 -3q160 353 300 708q10 -4 20 -4q8 0 28 5zM240 242q-47 5 -110 5q-69 0 -123 -5q2 7 2 19
q0 10 -2 16q28 -2 41 -2q12 0 15.5 2.5t3.5 13.5q1 53 1 108v87q-1 50 -1 61q0 6 1.5 18t1.5 18q0 2 -4 2q-10 -11 -24 -26q-8 -7 -34 -31q-7 18 -20 29q93 67 126 147q21 -3 34 -3t31 3q-4 -120 -4 -224t4 -187q1 -13 3 -15.5t17 -2.5q12 0 40 2q-2 -10 -2 -16q0 -7 3 -19z
" />
    <glyph glyph-name="threequarters" unicode="&#xbe;" horiz-adv-x="686" 
d="M677 137q-34 2 -58 2q-8 0 -8 -5q0 -16 1 -45q2 -35 2 -39q0 -18 21 -18q13 0 39 2q-2 -10 -2 -16q0 -7 3 -19q-49 5 -110 5q-67 0 -123 -5q3 12 3 17q0 6 -3 18q46 -3 43 -3q17 0 17 17q2 91 2 79q0 9 -3.5 11t-20.5 2t-51 -1t-53 -1q-3 11 -13 33q89 125 176 286
q10 -2 32 -2q28 0 42 2q-2 -268 -2 -252q0 -29 10 -29q6 0 55 3q-2 -10 -2 -19q0 -11 3 -23zM519 708q-137 -302 -302 -709q-14 4 -24 4q-13 0 -23 -5q165 364 301 709q10 -4 20 -4q8 0 28 5zM299 397q0 -86 -38.5 -123t-123.5 -37q-61 0 -90 33q-20 23 -33 79q16 0 35 14
q6 -48 26 -67t61 -19q47 0 47 118q0 71 -4.5 86.5t-26.5 15.5q-38 0 -77 -65q-13 21 -27 29q41 37 112 125q5 8 5 10t-2 2q-1 0 -10 -2q-31 1 -55.5 2.5t-26.5 1.5q-21 0 -29 -63q-16 14 -33 17q15 32 43 135q51 -5 106 -5q59 0 111 5v-9q0 -7 3 -16q-107 -109 -121 -138
q3 0 10.5 2.5t12.5 2.5q66 0 95.5 -31.5t29.5 -102.5zM510 331l-5 1q0 -3 -8 -19q-48 -80 -79 -126q-8 -12 -8 -9q0 -1 3 -1h52h15q10 -1 15 -1q10 0 10 8q0 17 -1 52.5t-1 53.5q0 16 7 41z" />
    <glyph glyph-name="questiondown" unicode="&#xbf;" horiz-adv-x="385" 
d="M319 415q0 -38 -23.5 -59.5t-56.5 -21.5t-57 21.5t-24 59.5q0 39 24 60.5t57 21.5t55 -20q25 -23 25 -62zM375 -96q0 -54 -47 -92.5t-122 -38.5q-83 0 -133 51q-53 55 -53 153q0 75 38 116q27 28 112 72q40 21 53 36t13 39q0 16 -13 65q26 0 40 9q9 -49 9 -71
q0 -64 -50 -97q-39 -25 -51 -73q-8 -29 -8 -92q0 -108 14 -147q11 -34 41 -34q36 0 36 23q0 10 -15.5 35t-15.5 49q0 41 22 64q19 21 49 21q32 0 56.5 -24t24.5 -64z" />
    <glyph glyph-name="Agrave" unicode="&#xc0;" horiz-adv-x="604" 
d="M317 734q-13 2 -20 2q-8 0 -16 -2q-36 67 -95 119q-28 24 -28 44q0 19 51 19q30 0 42.5 -6.5t18.5 -31.5q10 -43 47 -144zM594 0q-79 5 -153 5q-72 0 -140 -5q2 6 2 15q0 8 -2 19q28 -4 42 -4q17 0 17 9q0 4 -2 12q-22 89 -50 181q-3 11 -15 12q-18 1 -44 1q-23 0 -63 -1
q-19 0 -22 -12q-13 -44 -24 -84q-14 -52 -14 -81q0 -37 19 -37q16 0 43 4q-3 -9 -3 -18t3 -17q-47 5 -95 5q-42 0 -83 -5q3 9 3 17q0 9 -3 18q17 -2 29 -2q23 0 63 118q37 109 171 570q15 -3 28 -3t29 3q49 -196 202 -669q6 -20 24 -20q13 0 38 3q-2 -7 -2 -16t2 -18z
M293 282q0 2 -1 4q-6 15 -25 81q-19 63 -20 71q-1 15 -4 40q0 5 -6 11q-1 0 -3 -11q-4 -15 -54 -189q-1 -3 -1 -7q0 -7 58 -7q7 0 22 1h26q8 0 8 6z" />
    <glyph glyph-name="Aacute" unicode="&#xc1;" horiz-adv-x="604" 
d="M439 897q0 -19 -29 -44q-59 -52 -95 -119q-8 2 -16 2q-7 0 -18 -2q37 108 45 144q6 25 20 32q11 6 41 6q52 0 52 -19zM594 0q-79 5 -153 5q-72 0 -140 -5q2 6 2 15q0 8 -2 19q28 -4 42 -4q17 0 17 9q0 4 -2 12q-22 89 -50 181q-3 11 -15 12q-18 1 -44 1q-23 0 -63 -1
q-19 0 -22 -12q-13 -44 -24 -84q-14 -52 -14 -81q0 -37 19 -37q16 0 43 4q-3 -9 -3 -18t3 -17q-47 5 -95 5q-42 0 -83 -5q3 9 3 17q0 9 -3 18q17 -2 29 -2q23 0 63 118q37 109 171 570q15 -3 28 -3t29 3q49 -196 202 -669q6 -20 24 -20q13 0 38 3q-2 -7 -2 -16t2 -18z
M293 282q0 2 -1 4q-6 15 -25 81q-19 63 -20 71q-1 15 -4 40q0 5 -6 11q-1 0 -3 -11q-4 -15 -54 -189q-1 -3 -1 -7q0 -7 58 -7q7 0 22 1h26q8 0 8 6z" />
    <glyph glyph-name="Acircumflex" unicode="&#xc2;" horiz-adv-x="604" 
d="M432 735q-21 4 -42 4q-14 0 -37 -2q-18 30 -49 86l-1 10q-1 7 -4 7q-1 0 -3 -4q-22 -37 -56 -100q-14 1 -16 1q-9 0 -22 -2q51 85 56 94q32 56 46 92q6 -2 11 -2t10 2q12 -30 107 -186zM594 0q-79 5 -153 5q-72 0 -140 -5q2 6 2 15q0 8 -2 19q28 -4 42 -4q17 0 17 9
q0 4 -2 12q-22 89 -50 181q-3 11 -15 12q-18 1 -44 1q-23 0 -63 -1q-19 0 -22 -12q-13 -44 -24 -84q-14 -52 -14 -81q0 -37 19 -37q16 0 43 4q-3 -9 -3 -18t3 -17q-47 5 -95 5q-42 0 -83 -5q3 9 3 17q0 9 -3 18q17 -2 29 -2q23 0 63 118q37 109 171 570q15 -3 28 -3t29 3
q49 -196 202 -669q6 -20 24 -20q13 0 38 3q-2 -7 -2 -16t2 -18zM293 282q0 2 -1 4q-6 15 -25 81q-19 63 -20 71q-1 15 -4 40q0 5 -6 11q-1 0 -3 -11q-4 -15 -54 -189q-1 -3 -1 -7q0 -7 58 -7q7 0 22 1h26q8 0 8 6z" />
    <glyph glyph-name="Atilde" unicode="&#xc3;" horiz-adv-x="604" 
d="M433 872q-23 -56 -37 -76q-19 -25 -47 -25q-23 0 -64 19.5t-58 19.5q-24 0 -43 -42q-8 9 -22 11q19 52 32 71q20 29 49 29q21 0 62.5 -21t55.5 -21q25 0 51 47q9 -9 21 -12zM594 0q-79 5 -153 5q-72 0 -140 -5q2 6 2 15q0 8 -2 19q28 -4 42 -4q17 0 17 9q0 4 -2 12
q-22 89 -50 181q-3 11 -15 12q-18 1 -44 1q-23 0 -63 -1q-19 0 -22 -12q-13 -44 -24 -84q-14 -52 -14 -81q0 -37 19 -37q16 0 43 4q-3 -9 -3 -18t3 -17q-47 5 -95 5q-42 0 -83 -5q3 9 3 17q0 9 -3 18q17 -2 29 -2q23 0 63 118q37 109 171 570q15 -3 28 -3t29 3
q49 -196 202 -669q6 -20 24 -20q13 0 38 3q-2 -7 -2 -16t2 -18zM293 282q0 2 -1 4q-6 15 -25 81q-19 63 -20 71q-1 15 -4 40q0 5 -6 11q-1 0 -3 -11q-4 -15 -54 -189q-1 -3 -1 -7q0 -7 58 -7q7 0 22 1h26q8 0 8 6z" />
    <glyph glyph-name="Adieresis" unicode="&#xc4;" horiz-adv-x="604" 
d="M427 823q0 -25 -15.5 -38.5t-36.5 -13.5t-36 13.5t-15 38.5t15 39t36 14t36.5 -14t15.5 -39zM265 823q0 -25 -15.5 -38.5t-36.5 -13.5t-36 13.5t-15 38.5t15 39t36 14t36.5 -14t15.5 -39zM594 0q-79 5 -153 5q-72 0 -140 -5q2 6 2 15q0 8 -2 19q28 -4 42 -4q17 0 17 9
q0 4 -2 12q-22 89 -50 181q-3 11 -15 12q-18 1 -44 1q-23 0 -63 -1q-19 0 -22 -12q-13 -44 -24 -84q-14 -52 -14 -81q0 -37 19 -37q16 0 43 4q-3 -9 -3 -18t3 -17q-47 5 -95 5q-42 0 -83 -5q3 9 3 17q0 9 -3 18q17 -2 29 -2q23 0 63 118q37 109 171 570q15 -3 28 -3t29 3
q49 -196 202 -669q6 -20 24 -20q13 0 38 3q-2 -7 -2 -16t2 -18zM293 282q0 2 -1 4q-6 15 -25 81q-19 63 -20 71q-1 15 -4 40q0 5 -6 11q-1 0 -3 -11q-4 -15 -54 -189q-1 -3 -1 -7q0 -7 58 -7q7 0 22 1h26q8 0 8 6z" />
    <glyph glyph-name="Aring" unicode="&#xc5;" horiz-adv-x="604" 
d="M391 836q0 -36 -22 -60q-25 -28 -68 -28q-42 0 -67 28q-22 24 -22 59t23.5 61.5t65.5 26.5q43 0 68 -28q22 -24 22 -59zM594 0q-79 5 -153 5q-72 0 -140 -5q2 6 2 15q0 8 -2 19q28 -4 42 -4q17 0 17 9q0 4 -2 12q-22 89 -50 181q-3 11 -15 12q-18 1 -44 1q-23 0 -63 -1
q-19 0 -22 -12q-13 -44 -24 -84q-14 -52 -14 -81q0 -37 19 -37q16 0 43 4q-3 -9 -3 -18t3 -17q-47 5 -95 5q-42 0 -83 -5q3 9 3 17q0 9 -3 18q17 -2 29 -2q23 0 63 118q37 109 171 570q15 -3 28 -3t29 3q49 -196 202 -669q6 -20 24 -20q13 0 38 3q-2 -7 -2 -16t2 -18z
M350 835q0 21 -13 36t-35 15q-48 0 -48 -50q0 -51 48 -51t48 50zM293 282q0 2 -1 4q-6 15 -25 81q-19 63 -20 71q-1 15 -4 40q0 5 -6 11q-1 0 -3 -11q-4 -15 -54 -189q-1 -3 -1 -7q0 -7 58 -7q7 0 22 1h26q8 0 8 6z" />
    <glyph glyph-name="AE" unicode="&#xc6;" horiz-adv-x="898" 
d="M864 251q-10 -104 -10 -182q0 -32 4 -69q-95 4 -214 4q-187 0 -326 -4q4 10 4 19q0 7 -3 16q11 -1 28 -3q13 -1 19 -1q17 0 18 20q4 105 4 276v1q0 17 -18 17h-48q-24 0 -49 -1q-21 -1 -38.5 -25.5t-49.5 -97.5q-58 -132 -58 -173q0 -16 15 -16q10 0 36 2q-3 -9 -3 -18
q0 -10 3 -16q-53 4 -89 4q-45 0 -79 -5q3 9 3 17t-3 18q20 -2 29 -2q12 0 17 11q102 204 210 419q30 60 60 121q30 68 30 123l159 -4q51 0 155.5 2t159.5 2q-5 -49 -5 -77q0 -70 11 -150q-5 0 -9 1h-5q-3 0 -15 -3q-16 121 -73 162q-45 33 -150 33h-11q-18 0 -21.5 -3
t-4.5 -22q-7 -133 -7 -245q0 -19 3 -23t17 -4q72 0 97 33t25 121q6 -2 16 -2t18 2q-9 -106 -9 -183q0 -81 9 -162q-9 3 -15 3q-11 0 -19 -2q0 100 -26 132q-24 29 -96 29q-14 0 -17 -4t-3 -23q0 -120 7 -257q1 -19 8 -23t41 -4h23q107 0 159 50t54 165q9 -3 14 -3q6 0 18 4z
M392 646q0 2 -1 2q-3 0 -7 -8q-4 -12 -11 -29q-50 -102 -106 -222q-1 -4 -1 -7q0 -6 11 -6h14q8 -1 28 -1q56 0 40 -1q29 2 29 16q0 51 -1.5 102t-1.5 102q0 17 3.5 31t3.5 21z" />
    <glyph glyph-name="Ccedilla" unicode="&#xc7;" horiz-adv-x="590" 
d="M555 59q-93 -72 -203 -72q-8 0 -23.5 1t-21.5 1q-9 0 -9 -6t4 -7q44 -6 70.5 -30t26.5 -59q0 -84 -95 -84q-23 0 -45 12l-39 26q15 11 18 27q30 -34 56 -34q42 0 42 60q0 53 -74 62q11 31 11 30q0 7 -22 13q-216 56 -216 351q0 181 89 276q85 90 238 90q102 0 193 -57
q-8 -49 -8 -116q0 -39 4 -75q-10 3 -17 3q-8 0 -14 -3q-5 102 -48 162q-42 57 -106 57q-86 0 -120 -56q-42 -71 -42 -273q0 -206 33 -276q31 -65 121 -65q64 0 109 64q48 68 53 181q12 -3 16 -3q3 0 15 4q-5 -36 -5 -82q0 -72 9 -122z" />
    <glyph glyph-name="Egrave" unicode="&#xc8;" horiz-adv-x="583" 
d="M327 734q-13 2 -20 2q-8 0 -16 -2q-36 67 -95 119q-28 24 -28 44q0 19 51 19q30 0 42.5 -6.5t18.5 -31.5q10 -43 47 -144zM549 251q-10 -104 -10 -182q0 -32 4 -69q-107 4 -238 4q-173 0 -296 -4q4 9 4 19q0 8 -3 16q49 -4 42 -4q17 0 18 20q4 91 4 310q0 194 -5 298
q-1 16 -20 16q-12 0 -39 -4q3 9 3 17t-3 18q76 -4 190 -4q51 0 155 2t160 2q-5 -49 -5 -77q0 -70 11 -150q-5 0 -9 1h-5q-3 0 -15 -3q-16 121 -73 162q-45 33 -150 33h-11q-18 0 -21.5 -3.5t-4.5 -21.5q-7 -133 -7 -245q0 -19 3 -23t17 -4q72 0 97 33t25 121q6 -2 16 -2
t18 2q-9 -106 -9 -183q0 -81 9 -162q-7 2 -19 2q-9 0 -15 -1q0 100 -26 132q-24 29 -96 29q-14 0 -17 -4t-3 -23q0 -120 7 -257q1 -19 8 -23t41 -4h23q107 0 159 50t54 165q7 -2 15 -2q10 0 17 3z" />
    <glyph glyph-name="Eacute" unicode="&#xc9;" horiz-adv-x="583" 
d="M384 887q0 -19 -29 -44q-59 -52 -95 -119q-8 2 -16 2q-7 0 -18 -2q37 108 45 144q6 25 20 32q11 6 41 6q52 0 52 -19zM549 251q-10 -104 -10 -182q0 -32 4 -69q-107 4 -238 4q-173 0 -296 -4q4 9 4 19q0 8 -3 16q49 -4 42 -4q17 0 18 20q4 91 4 310q0 194 -5 298
q-1 16 -20 16q-12 0 -39 -4q3 9 3 17t-3 18q76 -4 190 -4q51 0 155 2t160 2q-5 -49 -5 -77q0 -70 11 -150q-5 0 -9 1h-5q-3 0 -15 -3q-16 121 -73 162q-45 33 -150 33h-11q-18 0 -21.5 -3.5t-4.5 -21.5q-7 -133 -7 -245q0 -19 3 -23t17 -4q72 0 97 33t25 121q6 -2 16 -2
t18 2q-9 -106 -9 -183q0 -81 9 -162q-7 2 -19 2q-9 0 -15 -1q0 100 -26 132q-24 29 -96 29q-14 0 -17 -4t-3 -23q0 -120 7 -257q1 -19 8 -23t41 -4h23q107 0 159 50t54 165q7 -2 15 -2q10 0 17 3z" />
    <glyph glyph-name="Ecircumflex" unicode="&#xca;" horiz-adv-x="583" 
d="M400 731q-21 4 -42 4q-14 0 -37 -2q-18 30 -49 86l-1 10q-1 7 -4 7q-2 -1 -4 -4q-22 -37 -55 -100q-14 1 -16 1q-9 0 -22 -2q51 85 56 94q32 56 46 92q6 -2 11 -2t10 2q12 -30 107 -186zM549 251q-10 -104 -10 -182q0 -32 4 -69q-107 4 -238 4q-173 0 -296 -4q4 9 4 19
q0 8 -3 16q49 -4 42 -4q17 0 18 20q4 91 4 310q0 194 -5 298q-1 16 -20 16q-12 0 -39 -4q3 9 3 17t-3 18q76 -4 190 -4q51 0 155 2t160 2q-5 -49 -5 -77q0 -70 11 -150q-5 0 -9 1h-5q-3 0 -15 -3q-16 121 -73 162q-45 33 -150 33h-11q-18 0 -21.5 -3.5t-4.5 -21.5
q-7 -133 -7 -245q0 -19 3 -23t17 -4q72 0 97 33t25 121q6 -2 16 -2t18 2q-9 -106 -9 -183q0 -81 9 -162q-7 2 -19 2q-9 0 -15 -1q0 100 -26 132q-24 29 -96 29q-14 0 -17 -4t-3 -23q0 -120 7 -257q1 -19 8 -23t41 -4h23q107 0 159 50t54 165q7 -2 15 -2q10 0 17 3z" />
    <glyph glyph-name="Edieresis" unicode="&#xcb;" horiz-adv-x="583" 
d="M406 823q0 -25 -15.5 -38.5t-36.5 -13.5t-36 13.5t-15 38.5t15 39t36 14t36.5 -14t15.5 -39zM244 823q0 -25 -15.5 -38.5t-36.5 -13.5t-36 13.5t-15 38.5t15 39t36 14t36.5 -14t15.5 -39zM549 251q-10 -104 -10 -182q0 -32 4 -69q-107 4 -238 4q-173 0 -296 -4q4 9 4 19
q0 8 -3 16q49 -4 42 -4q17 0 18 20q4 91 4 310q0 194 -5 298q-1 16 -20 16q-12 0 -39 -4q3 9 3 17t-3 18q76 -4 190 -4q51 0 155 2t160 2q-5 -49 -5 -77q0 -70 11 -150q-5 0 -9 1h-5q-3 0 -15 -3q-16 121 -73 162q-45 33 -150 33h-11q-18 0 -21.5 -3.5t-4.5 -21.5
q-7 -133 -7 -245q0 -19 3 -23t17 -4q72 0 97 33t25 121q6 -2 16 -2t18 2q-9 -106 -9 -183q0 -81 9 -162q-7 2 -19 2q-9 0 -15 -1q0 100 -26 132q-24 29 -96 29q-14 0 -17 -4t-3 -23q0 -120 7 -257q1 -19 8 -23t41 -4h23q107 0 159 50t54 165q7 -2 15 -2q10 0 17 3z" />
    <glyph glyph-name="Igrave" unicode="&#xcc;" horiz-adv-x="312" 
d="M177 734q-13 2 -20 2q-8 0 -16 -2q-36 67 -95 119q-28 24 -28 44q0 19 51 19q30 0 42.5 -6.5t18.5 -31.5q10 -43 47 -144zM300 -1q-64 5 -141 5q-62 0 -149 -4q2 7 2 18t-2 17q24 -5 38 -5q25 0 26 17q5 107 5 314q0 202 -5 301q-1 13 -22 13q-16 0 -42 -4q2 6 2 17
t-2 18q87 -4 149 -4q77 0 141 5q-3 -8 -3 -20q0 -8 2 -16q-28 4 -39 4q-21 0 -22 -12q-9 -147 -9 -303q0 -161 9 -314q1 -16 19 -16q10 0 42 5q-2 -8 -2 -16q0 -11 3 -20z" />
    <glyph glyph-name="Iacute" unicode="&#xcd;" horiz-adv-x="312" 
d="M294 897q0 -19 -29 -44q-59 -52 -95 -119q-8 2 -16 2q-7 0 -18 -2q37 108 45 144q6 25 20 32q11 6 41 6q52 0 52 -19zM300 -1q-64 5 -141 5q-62 0 -149 -4q2 7 2 18t-2 17q24 -5 38 -5q25 0 26 17q5 107 5 314q0 202 -5 301q-1 13 -22 13q-16 0 -42 -4q2 6 2 17t-2 18
q87 -4 149 -4q77 0 141 5q-3 -8 -3 -20q0 -8 2 -16q-28 4 -39 4q-21 0 -22 -12q-9 -147 -9 -303q0 -161 9 -314q1 -16 19 -16q10 0 42 5q-2 -8 -2 -16q0 -11 3 -20z" />
    <glyph glyph-name="Icircumflex" unicode="&#xce;" horiz-adv-x="312" 
d="M270 741q-21 4 -42 4q-14 0 -37 -2q-18 30 -49 86l-1 10q-1 7 -4 7q-2 -1 -4 -4q-22 -37 -55 -100q-14 1 -16 1q-9 0 -22 -2q51 85 56 94q32 56 46 92q6 -2 11 -2t10 2q12 -30 107 -186zM300 -1q-64 5 -141 5q-62 0 -149 -4q2 7 2 18t-2 17q24 -5 38 -5q25 0 26 17
q5 107 5 314q0 202 -5 301q-1 13 -22 13q-16 0 -42 -4q2 6 2 17t-2 18q87 -4 149 -4q77 0 141 5q-3 -8 -3 -20q0 -8 2 -16q-28 4 -39 4q-21 0 -22 -12q-9 -147 -9 -303q0 -161 9 -314q1 -16 19 -16q10 0 42 5q-2 -8 -2 -16q0 -11 3 -20z" />
    <glyph glyph-name="Idieresis" unicode="&#xcf;" horiz-adv-x="312" 
d="M277 822q0 -25 -15.5 -38.5t-36.5 -13.5t-36 13.5t-15 38.5t15 39t36 14t36.5 -14t15.5 -39zM115 822q0 -25 -15.5 -38.5t-36.5 -13.5t-36 13.5t-15 38.5t15 39t36 14t36.5 -14t15.5 -39zM300 -1q-64 5 -141 5q-62 0 -149 -4q2 7 2 18t-2 17q24 -5 38 -5q25 0 26 17
q5 107 5 314q0 202 -5 301q-1 13 -22 13q-16 0 -42 -4q2 6 2 17t-2 18q87 -4 149 -4q77 0 141 5q-3 -8 -3 -20q0 -8 2 -16q-28 4 -39 4q-21 0 -22 -12q-9 -147 -9 -303q0 -161 9 -314q1 -16 19 -16q10 0 42 5q-2 -8 -2 -16q0 -11 3 -20z" />
    <glyph glyph-name="Eth" unicode="&#xd0;" horiz-adv-x="697" 
d="M676 358q0 -167 -60 -254q-72 -104 -234 -104q-38 0 -122 1.5t-122 1.5q-72 0 -128 -3q3 15 3 18q0 7 -5 17q9 0 22.5 -1.5t18.5 -1.5q19 0 20 16q5 137 5 292q0 12 -10 12q-22 0 -54 -4q3 18 3 22t-3 25q65 -4 54 -4q10 0 10 12v15q0 157 -4 239q-1 18 -20 18
q-5 0 -18.5 -2t-23.5 -2q5 10 5 20q0 6 -3 15q59 -3 133 -3q35 0 115 1.5t115 1.5q303 0 303 -348zM510 353q0 142 -20.5 209.5t-70.5 91.5q-41 20 -133 20q-35 0 -43.5 -3.5t-9.5 -18.5q-6 -111 -6 -213v-33q1 -11 5 -13.5t19 -2.5q21 0 59 2q45 2 65 3q-4 -7 -4 -21
q0 -13 4 -25q-128 3 -134 3q-9 0 -12 -9q-2 -13 -2 -63q0 -99 6 -221q1 -16 11 -21t47 -5q127 0 171 58q48 65 48 262z" />
    <glyph glyph-name="Ntilde" unicode="&#xd1;" horiz-adv-x="601" 
d="M436 873q-23 -56 -37 -76q-19 -25 -47 -25q-23 0 -64 19.5t-58 19.5q-24 0 -43 -42q-8 9 -22 11q19 52 32 71q20 29 49 29q21 0 62.5 -21t55.5 -21q25 0 51 47q9 -9 21 -12zM591 671q-19 5 -33 5q-22 0 -27 -22t-8 -140q-1 -37 -1 -61q0 -158 4 -462q-32 0 -43 -9
q-11 34 -33 72q-56 99 -153 250l-164 252q-5 15 -16 44q-2 4 -4 4q-3 -1 -3 -4q0 -4 3 -24.5t3 -30.5v-173q0 -183 2 -214q6 -91 13 -109t36 -18q3 0 30 3q-2 -8 -2 -18t2 -17q-57 4 -99 4q-40 0 -87 -4q2 5 2 17t-2 18q24 -4 33 -4q17 0 23 21q7 25 8 108q1 117 1 146v161
q0 152 -10 194q-4 17 -21 17q-11 0 -35 -5q3 7 3 16q0 10 -3 19q41 -5 99 -5q51 0 112 4q34 -66 115 -190q126 -194 133 -205q4 -12 12 -31q3 -6 5 -6q5 0 5 10q0 8 -2 25.5t-2 25.5q0 102 -4 180q-5 118 -10.5 139t-30.5 21q-11 0 -35 -4q2 7 2 18t-2 18q37 -5 86 -5
q43 0 98 4q-3 -7 -3 -17t3 -18z" />
    <glyph glyph-name="Ograve" unicode="&#xd2;" horiz-adv-x="674" 
d="M357 734q-13 2 -20 2q-8 0 -16 -2q-36 67 -95 119q-28 24 -28 44q0 19 51 19q30 0 42.5 -6.5t18.5 -31.5q10 -43 47 -144zM639 367q0 -178 -85 -280q-81 -98 -217 -98q-139 0 -220.5 97.5t-81.5 264.5q0 169 82.5 267t220.5 98t219.5 -95.5t81.5 -253.5zM480 336
q0 221 -34 293q-27 59 -105 59q-82 0 -113 -59q-35 -70 -35 -272t36 -276q31 -63 109 -63q73 0 104 55q38 70 38 263z" />
    <glyph glyph-name="Oacute" unicode="&#xd3;" horiz-adv-x="674" 
d="M484 897q0 -19 -29 -44q-59 -52 -95 -119q-8 2 -16 2q-7 0 -18 -2q37 108 45 144q6 25 20 32q11 6 41 6q52 0 52 -19zM639 367q0 -178 -85 -280q-81 -98 -217 -98q-139 0 -220.5 97.5t-81.5 264.5q0 169 82.5 267t220.5 98t219.5 -95.5t81.5 -253.5zM480 336
q0 221 -34 293q-27 59 -105 59q-82 0 -113 -59q-35 -70 -35 -272t36 -276q31 -63 109 -63q73 0 104 55q38 70 38 263z" />
    <glyph glyph-name="Ocircumflex" unicode="&#xd4;" horiz-adv-x="674" 
d="M460 741q-21 4 -42 4q-14 0 -37 -2q-18 30 -49 86l-1 10q-1 7 -4 7q-2 -1 -4 -4q-22 -37 -55 -100q-14 1 -16 1q-9 0 -22 -2q51 85 56 94q32 56 46 92q6 -2 11 -2t10 2q12 -30 107 -186zM639 367q0 -178 -85 -280q-81 -98 -217 -98q-139 0 -220.5 97.5t-81.5 264.5
q0 169 82.5 267t220.5 98t219.5 -95.5t81.5 -253.5zM480 336q0 221 -34 293q-27 59 -105 59q-82 0 -113 -59q-35 -70 -35 -272t36 -276q31 -63 109 -63q73 0 104 55q38 70 38 263z" />
    <glyph glyph-name="Otilde" unicode="&#xd5;" horiz-adv-x="674" 
d="M458 875q-23 -56 -37 -76q-19 -25 -47 -25q-23 0 -64 19.5t-58 19.5q-24 0 -43 -42q-8 9 -22 11q19 52 32 71q20 29 49 29q21 0 62.5 -21t55.5 -21q25 0 51 47q9 -9 21 -12zM639 367q0 -178 -85 -280q-81 -98 -217 -98q-139 0 -220.5 97.5t-81.5 264.5q0 169 82.5 267
t220.5 98t219.5 -95.5t81.5 -253.5zM480 336q0 221 -34 293q-27 59 -105 59q-82 0 -113 -59q-35 -70 -35 -272t36 -276q31 -63 109 -63q73 0 104 55q38 70 38 263z" />
    <glyph glyph-name="Odieresis" unicode="&#xd6;" horiz-adv-x="674" 
d="M470 823q0 -25 -15.5 -38.5t-36.5 -13.5t-36 13.5t-15 38.5t15 39t36 14t36.5 -14t15.5 -39zM308 823q0 -25 -15.5 -38.5t-36.5 -13.5t-36 13.5t-15 38.5t15 39t36 14t36.5 -14t15.5 -39zM639 367q0 -178 -85 -280q-81 -98 -217 -98q-139 0 -220.5 97.5t-81.5 264.5
q0 169 82.5 267t220.5 98t219.5 -95.5t81.5 -253.5zM480 336q0 221 -34 293q-27 59 -105 59q-82 0 -113 -59q-35 -70 -35 -272t36 -276q31 -63 109 -63q73 0 104 55q38 70 38 263z" />
    <glyph glyph-name="multiply" unicode="&#xd7;" horiz-adv-x="527" 
d="M483 117q-27 -18 -42 -41l-165 170q-7 7 -13 7q-5 0 -12 -7l-165 -170q-13 24 -43 41l177 164q4 4 4 9q0 7 -7 13l-174 160q22 12 43 42l164 -169q7 -7 13 -7t14 8l164 168q14 -26 42 -42l-174 -160q-7 -6 -7 -12q0 -7 7 -13z" />
    <glyph glyph-name="Oslash" unicode="&#xd8;" horiz-adv-x="674" 
d="M639 367q0 -178 -85 -280q-81 -98 -217 -98q-120 0 -195 74q-5 5 -10 5q-6 0 -10 -6q-17 -23 -54 -73q-12 22 -28 27q19 24 59 71q8 9 8 14q0 7 -5 15q-67 108 -67 235q0 169 82.5 267t220.5 98q113 0 187 -67q5 -5 9 -5q3 0 9 7q25 29 50 69q8 -19 32 -29
q-20 -24 -56 -67q-6 -6 -6 -12q0 -5 4 -11q72 -107 72 -234zM465 562q0 7 -3 20q-14 58 -38 81q-27 25 -84 25q-82 0 -112 -59q-36 -71 -36 -282q0 -47 3 -109q-2 -16 -2 -20q0 -5 4 -5q2 0 18 20q84 107 239 304q11 14 11 25zM482 356q0 67 -5 133q3 15 3 17q0 4 -2 4
q-1 0 -14 -16q-108 -135 -244 -308q-12 -15 -12 -29q0 -60 36 -99.5t94 -39.5q55 0 82 26q62 59 62 312z" />
    <glyph glyph-name="Ugrave" unicode="&#xd9;" horiz-adv-x="616" 
d="M357 734q-13 2 -20 2q-8 0 -16 -2q-36 67 -95 119q-28 24 -28 44q0 19 51 19q30 0 42.5 -6.5t18.5 -31.5q10 -43 47 -144zM606 671q-28 5 -35 5q-20 0 -26 -41.5t-7 -199.5l-1 -204q0 -133 -27 -176q-43 -65 -188 -65q-141 0 -200 47q-62 51 -62 179q0 48 1 143.5
t1 143.5v34q0 88 -2 126q-1 13 -14 13q1 0 -36 -4q2 6 2 16t-2 18q56 -3 129 -3q81 0 136 3q-2 -6 -2 -14q0 -11 3 -20q-32 5 -38 5q-13 0 -13 -14q0 -27 -2 -128q-2 -83 -2 -140q0 -96 3 -178q4 -113 30.5 -147.5t107.5 -34.5q91 0 121 47q19 31 19 113l-1 236
q-2 160 -10.5 203t-35.5 43q-13 0 -39 -6q3 10 3 17q0 5 -3 19q41 -5 89 -5q46 0 101 4q-3 -8 -3 -18q0 -9 3 -17z" />
    <glyph glyph-name="Uacute" unicode="&#xda;" horiz-adv-x="616" 
d="M434 897q0 -19 -29 -44q-59 -52 -95 -119q-8 2 -16 2q-7 0 -18 -2q37 108 45 144q6 25 20 32q11 6 41 6q52 0 52 -19zM606 671q-28 5 -35 5q-20 0 -26 -41.5t-7 -199.5l-1 -204q0 -133 -27 -176q-43 -65 -188 -65q-141 0 -200 47q-62 51 -62 179q0 48 1 143.5t1 143.5v34
q0 88 -2 126q-1 13 -14 13q1 0 -36 -4q2 6 2 16t-2 18q56 -3 129 -3q81 0 136 3q-2 -6 -2 -14q0 -11 3 -20q-32 5 -38 5q-13 0 -13 -14q0 -27 -2 -128q-2 -83 -2 -140q0 -96 3 -178q4 -113 30.5 -147.5t107.5 -34.5q91 0 121 47q19 31 19 113l-1 236q-2 160 -10.5 203
t-35.5 43q-13 0 -39 -6q3 10 3 17q0 5 -3 19q41 -5 89 -5q46 0 101 4q-3 -8 -3 -18q0 -9 3 -17z" />
    <glyph glyph-name="Ucircumflex" unicode="&#xdb;" horiz-adv-x="616" 
d="M440 741q-21 4 -42 4q-14 0 -37 -2q-18 30 -49 86l-1 10q-1 7 -4 7q-2 -1 -4 -4q-22 -37 -55 -100q-14 1 -16 1q-9 0 -22 -2q51 85 56 94q32 56 46 92q6 -2 11 -2t10 2q12 -30 107 -186zM606 671q-28 5 -35 5q-20 0 -26 -41.5t-7 -199.5l-1 -204q0 -133 -27 -176
q-43 -65 -188 -65q-141 0 -200 47q-62 51 -62 179q0 48 1 143.5t1 143.5v34q0 88 -2 126q-1 13 -14 13q1 0 -36 -4q2 6 2 16t-2 18q56 -3 129 -3q81 0 136 3q-2 -6 -2 -14q0 -11 3 -20q-32 5 -38 5q-13 0 -13 -14q0 -27 -2 -128q-2 -83 -2 -140q0 -96 3 -178
q4 -113 30.5 -147.5t107.5 -34.5q91 0 121 47q19 31 19 113l-1 236q-2 160 -10.5 203t-35.5 43q-13 0 -39 -6q3 10 3 17q0 5 -3 19q41 -5 89 -5q46 0 101 4q-3 -8 -3 -18q0 -9 3 -17z" />
    <glyph glyph-name="Udieresis" unicode="&#xdc;" horiz-adv-x="616" 
d="M443 823q0 -25 -15.5 -38.5t-36.5 -13.5t-36 13.5t-15 38.5t15 39t36 14t36.5 -14t15.5 -39zM281 823q0 -25 -15.5 -38.5t-36.5 -13.5t-36 13.5t-15 38.5t15 39t36 14t36.5 -14t15.5 -39zM606 671q-28 5 -35 5q-20 0 -26 -41.5t-7 -199.5l-1 -204q0 -133 -27 -176
q-43 -65 -188 -65q-141 0 -200 47q-62 51 -62 179q0 48 1 143.5t1 143.5v34q0 88 -2 126q-1 13 -14 13q1 0 -36 -4q2 6 2 16t-2 18q56 -3 129 -3q81 0 136 3q-2 -6 -2 -14q0 -11 3 -20q-32 5 -38 5q-13 0 -13 -14q0 -27 -2 -128q-2 -83 -2 -140q0 -96 3 -178
q4 -113 30.5 -147.5t107.5 -34.5q91 0 121 47q19 31 19 113l-1 236q-2 160 -10.5 203t-35.5 43q-13 0 -39 -6q3 10 3 17q0 5 -3 19q41 -5 89 -5q46 0 101 4q-3 -8 -3 -18q0 -9 3 -17z" />
    <glyph glyph-name="Yacute" unicode="&#xdd;" horiz-adv-x="566" 
d="M444 897q0 -19 -29 -44q-59 -52 -95 -119q-8 2 -16 2q-7 0 -18 -2q37 108 45 144q6 25 20 32q11 6 41 6q52 0 52 -19zM560 672q-30 4 -37 4q-10 0 -21 -18q-32 -54 -67 -134q-29 -69 -59 -138q-10 -23 -10 -38v-43q0 -150 6 -253q1 -21 19 -21q7 0 42 4q-3 -8 -3 -16
q0 -13 4 -20q-64 5 -137 5q-56 0 -143 -4q2 6 2 17t-2 18q22 -4 40 -4t19 18q3 93 3 175v62q-1 42 -1 62t-8 36l-102 200q-34 65 -43 78t-21 13q-1 0 -31 -3q3 8 3 17q0 8 -3 17q62 -3 136 -3q79 0 138 3q-3 -5 -3 -15q0 -11 3 -19q-7 1 -13 1q-12 1 -20 1q-23 0 -23 -8
q0 -9 15 -36q20 -35 21 -37q8 -17 75 -156q2 -8 5 -17q3 -12 7 -12q2 0 3.5 5.5t8.5 24.5q75 177 75 222q0 15 -18 15q-12 0 -32 -4q2 10 2 18t-2 18q45 -4 78 -4q53 0 94 3q-2 -10 -2 -18t2 -16z" />
    <glyph glyph-name="Thorn" unicode="&#xde;" horiz-adv-x="554" 
d="M529 399q0 -189 -188 -189q-27 0 -64 2l-37 2q-8 0 -8 -12q0 -54 6 -156q1 -15 20 -15q5 0 18.5 2t22.5 2q-2 -10 -2 -16q0 -8 3 -20q-64 5 -141 5q-62 0 -149 -4q3 12 3 17q0 3 -3 18q8 0 23 -2t21 -2q19 0 20 16q5 107 5 314q0 202 -5 301q-1 13 -20 13q-7 0 -22 -2
t-22 -2q3 15 3 17q0 3 -3 18q87 -4 149 -4q77 0 141 5q-3 -12 -3 -21q0 -7 2 -15q-9 0 -23.5 2t-19.5 2q-17 0 -18 -12q-3 -49 -3 -56q0 -11 13 -11q12 0 40 1t39 1q202 0 202 -199zM370 397q0 102 -24 135t-87 33q-25 0 -26 -12q-3 -55 -3 -122q0 -26 1 -81v-81
q0 -19 7 -22.5t21 -3.5q70 0 90.5 26.5t20.5 127.5z" />
    <glyph glyph-name="germandbls" unicode="&#xdf;" horiz-adv-x="545" 
d="M514 238q0 -138 -45 -196q-40 -51 -127 -51q-55 0 -76 40q-14 29 -14 89v15q6 -2 15 -2q10 0 18 2l-2 -41q0 -64 46 -64q38 0 38 122q0 254 -28 283q-13 14 -35 14q-9 0 -34 -5q3 9 3 20q0 10 -3 20q30 -5 39 -5q22 0 30 15q11 20 11 80q0 71 -19 95q-15 18 -55 18
q-35 0 -48 -9q-16 -10 -22 -45q-10 -60 -10 -171q0 -64 4 -197q4 -152 5 -218q0 -17 12 -17q16 0 33 5q-3 -7 -3 -19q0 -11 3 -17q-63 6 -115 6q-50 0 -125 -6q2 8 2 19q0 10 -2 18q16 -7 31 -7q12 0 12 16l4 492q1 179 226 179q208 0 208 -143q0 -107 -124 -107q-3 0 -5 -2
v-3q26 0 72 -11q80 -44 80 -212z" />
    <glyph glyph-name="agrave" unicode="&#xe0;" horiz-adv-x="470" 
d="M233 524q-13 2 -20 2q-8 0 -16 -2q-36 67 -95 119q-28 24 -28 44q0 19 51 19q30 0 42.5 -6.5t18.5 -31.5q10 -43 47 -144zM460 1q-82 -8 -84 -8q-104 0 -104 63q-1 3 -3 3q-1 0 -4 -10q-8 -26 -35 -42.5t-69 -16.5q-146 0 -146 127q0 83 57 118q16 10 100 33q75 21 86 32
q3 4 3 11v49q0 44 -3 59q-6 36 -31 46q-11 5 -28 5q-29 0 -29 -19v-33q-1 -23 -1 -31q0 -31 -21 -49.5t-48 -18.5q-25 0 -43 17t-18 48q0 112 185 112q93 0 133 -30q47 -36 47 -129v-223v-22q-1 -15 -1 -22q0 -44 23 -44q9 0 32 9q-2 -9 -2 -14q0 -8 4 -20zM260 263
q0 7 -4 7t-19 -8q-18 -9 -21 -10q-61 -20 -61 -132q0 -44 2 -55q7 -35 34 -35q37 0 54 43q10 25 11 53q4 120 4 137z" />
    <glyph glyph-name="aacute" unicode="&#xe1;" horiz-adv-x="470" 
d="M360 687q0 -19 -29 -44q-59 -52 -95 -119q-8 2 -16 2q-7 0 -18 -2q37 108 45 144q6 25 20 32q11 6 41 6q52 0 52 -19zM460 1q-82 -8 -84 -8q-104 0 -104 63q-1 3 -3 3q-1 0 -4 -10q-8 -26 -35 -42.5t-69 -16.5q-146 0 -146 127q0 83 57 118q16 10 100 33q75 21 86 32
q3 4 3 11v49q0 44 -3 59q-7 36 -31 46q-11 5 -28 5q-29 0 -29 -19v-33q-1 -23 -1 -31q0 -31 -21 -49.5t-48 -18.5q-25 0 -43 17t-18 48q0 112 185 112q93 0 133 -30q47 -36 47 -129v-223v-22q-1 -15 -1 -22q0 -44 23 -44q9 0 32 9q-2 -9 -2 -14q0 -8 4 -20zM260 263
q0 7 -4 7t-19 -8q-18 -9 -21 -10q-61 -20 -61 -132q0 -44 2 -55q7 -35 34 -35q37 0 54 43q10 25 11 53q4 120 4 137z" />
    <glyph glyph-name="acircumflex" unicode="&#xe2;" horiz-adv-x="470" 
d="M335 521q-21 4 -42 4q-14 0 -37 -2q-18 30 -49 86l-1 10q-1 7 -4 7q-2 -1 -4 -4q-22 -37 -55 -100q-14 1 -16 1q-9 0 -22 -2q51 85 56 94q32 56 46 92q6 -2 11 -2t10 2q12 -30 107 -186zM460 1q-82 -8 -84 -8q-104 0 -104 63q-1 3 -3 3q-1 0 -4 -10q-8 -26 -35 -42.5
t-69 -16.5q-146 0 -146 127q0 83 57 118q16 10 100 33q75 21 86 32q3 4 3 11v49q0 44 -3 59q-6 36 -31 46q-11 5 -28 5q-29 0 -29 -19v-33q-1 -23 -1 -31q0 -31 -21 -49.5t-48 -18.5q-25 0 -43 17t-18 48q0 112 185 112q93 0 133 -30q47 -36 47 -129v-223v-22q-1 -15 -1 -22
q0 -44 23 -44q9 0 32 9q-2 -9 -2 -14q0 -8 4 -20zM260 263q0 7 -4 7t-19 -8q-18 -9 -21 -10q-61 -20 -61 -132q0 -44 2 -55q7 -35 34 -35q37 0 54 43q10 25 11 53q4 120 4 137z" />
    <glyph glyph-name="atilde" unicode="&#xe3;" horiz-adv-x="470" 
d="M347 661q-23 -56 -37 -76q-19 -25 -47 -25q-23 0 -64 19.5t-58 19.5q-24 0 -43 -42q-8 9 -22 11q19 52 32 71q20 29 49 29q21 0 62.5 -21t55.5 -21q25 0 51 47q9 -9 21 -12zM460 1q-82 -8 -84 -8q-104 0 -104 63q-1 3 -3 3q-1 0 -4 -10q-8 -26 -35 -42.5t-69 -16.5
q-146 0 -146 127q0 83 57 118q16 10 100 33q75 21 86 32q3 4 3 11v49q0 44 -3 59q-6 36 -31 46q-11 5 -28 5q-29 0 -29 -19v-33q-1 -23 -1 -31q0 -31 -21 -49.5t-48 -18.5q-25 0 -43 17t-18 48q0 112 185 112q93 0 133 -30q47 -36 47 -129v-223v-22q-1 -15 -1 -22
q0 -44 23 -44q9 0 32 9q-2 -9 -2 -14q0 -8 4 -20zM260 263q0 7 -4 7t-19 -8q-18 -9 -21 -10q-61 -20 -61 -132q0 -44 2 -55q7 -35 34 -35q37 0 54 43q10 25 11 53q4 120 4 137z" />
    <glyph glyph-name="adieresis" unicode="&#xe4;" horiz-adv-x="470" 
d="M348 628q0 -25 -15.5 -38.5t-36.5 -13.5t-36 13.5t-15 38.5t15 39t36 14t36.5 -14t15.5 -39zM186 628q0 -25 -15.5 -38.5t-36.5 -13.5t-36 13.5t-15 38.5t15 39t36 14t36.5 -14t15.5 -39zM460 1q-82 -8 -84 -8q-104 0 -104 63q-1 3 -3 3q-1 0 -4 -10q-8 -26 -35 -42.5
t-69 -16.5q-146 0 -146 127q0 83 57 118q16 10 100 33q75 21 86 32q3 4 3 11v49q0 44 -3 59q-6 36 -31 46q-11 5 -28 5q-29 0 -29 -19v-33q-1 -23 -1 -31q0 -31 -21 -49.5t-48 -18.5q-25 0 -43 17t-18 48q0 112 185 112q93 0 133 -30q47 -36 47 -129v-223v-22q-1 -15 -1 -22
q0 -44 23 -44q9 0 32 9q-2 -9 -2 -14q0 -8 4 -20zM260 263q0 7 -4 7t-19 -8q-18 -9 -21 -10q-61 -20 -61 -132q0 -44 2 -55q7 -35 34 -35q37 0 54 43q10 25 11 53q4 120 4 137z" />
    <glyph glyph-name="aring" unicode="&#xe5;" horiz-adv-x="470" 
d="M311 620q0 -36 -22 -60q-25 -28 -68 -28q-42 0 -67 28q-22 24 -22 59t23.5 61.5t65.5 26.5q43 0 68 -28q22 -24 22 -59zM460 1q-82 -8 -84 -8q-104 0 -104 63q-1 3 -3 3q-1 0 -4 -10q-8 -26 -35 -42.5t-69 -16.5q-146 0 -146 127q0 83 57 118q16 10 100 33q75 21 86 32
q3 4 3 11v49q0 44 -3 59q-6 36 -31 46q-11 5 -28 5q-29 0 -29 -19v-33q-1 -23 -1 -31q0 -31 -21 -49.5t-48 -18.5q-25 0 -43 17t-18 48q0 112 185 112q93 0 133 -30q47 -36 47 -129v-223v-22q-1 -15 -1 -22q0 -44 23 -44q9 0 32 9q-2 -9 -2 -14q0 -8 4 -20zM270 619
q0 21 -13 36t-35 15q-48 0 -48 -50q0 -51 48 -51t48 50zM260 263q0 7 -4 7t-19 -8q-18 -9 -21 -10q-61 -20 -61 -132q0 -44 2 -55q7 -35 34 -35q37 0 54 43q10 25 11 53q4 120 4 137z" />
    <glyph glyph-name="ae" unicode="&#xe6;" horiz-adv-x="672" 
d="M662 263q-95 7 -237 7q-19 0 -20 -12q1 -148 28 -194q20 -35 80 -35q93 0 114 105q13 -13 34 -14q-27 -133 -182 -133q-136 0 -182 75q-2 3 -4 3q-3 0 -8 -6q-23 -38 -40 -51q-24 -18 -69 -18q-76 0 -120 38q-41 35 -41 89q0 77 49 111q31 22 125 44q2 1 52 19
q20 7 20 20v50q0 90 -30 101q-10 5 -29 5q-42 0 -42 -17v-32q-1 -22 -1 -30q0 -33 -20.5 -52t-47.5 -19q-26 0 -44 17.5t-18 50.5q0 111 200 111q93 0 116 -40l6 -10q2 0 8 12q19 38 117 38q99 0 142 -56t44 -177zM521 377q0 92 -53 92q-61 0 -61 -165q0 -9 6 -9
q-12 0 86 10q16 2 18.5 4.5t2.5 18.5q0 6 1 23v26zM260 263q0 3 -4 3q-6 0 -22 -7l-18 -8q-61 -20 -61 -131q0 -90 51 -90q30 0 41 31q6 16 9 55q4 61 4 147z" />
    <glyph glyph-name="ccedilla" unicode="&#xe7;" horiz-adv-x="419" 
d="M404 374q0 -31 -20 -49t-48 -18q-74 0 -74 73q0 9 1.5 26.5t1.5 26.5q0 22 -3 27q-5 10 -24 10q-40 0 -53 -38q-16 -44 -16 -181q0 -136 24 -185q19 -39 66 -39q49 0 75 22t38 75q14 -9 31 -9q-13 -62 -60 -95q-42 -30 -99 -30h-17q-11 1 -16 1q-7 0 -7 -8q0 -7 4 -7
q39 -1 67.5 -24.5t28.5 -61.5q0 -87 -94 -87q-23 0 -45 12l-39 26q15 11 18 27q30 -34 56 -34q23 0 31.5 10.5t8.5 48.5q0 36 -11.5 46t-63.5 14q1 3 7 16t6 17q0 8 -25 16q-128 40 -128 236q0 137 54 199q52 59 158 59q167 0 167 -122z" />
    <glyph glyph-name="egrave" unicode="&#xe8;" horiz-adv-x="442" 
d="M261 524q-13 2 -20 2q-8 0 -16 -2q-36 67 -95 119q-28 24 -28 44q0 19 51 19q30 0 42.5 -6.5t18.5 -31.5q10 -43 47 -144zM427 263q-95 7 -237 7q-20 0 -20 -12q0 -13 1 -45q4 -119 31 -158q21 -30 76 -30q93 0 114 109q12 -13 34 -14q-27 -133 -182 -133q-113 0 -165 57
q-54 61 -54 199q0 253 216 253q99 0 142 -56t44 -177zM296 377q0 94 -63 94q-61 0 -61 -167q0 -9 6 -9q24 0 95 8q19 2 21 12t2 62z" />
    <glyph glyph-name="eacute" unicode="&#xe9;" horiz-adv-x="442" 
d="M369 687q0 -19 -29 -44q-59 -52 -95 -119q-8 2 -16 2q-7 0 -18 -2q37 108 45 144q6 25 20 32q11 6 41 6q52 0 52 -19zM427 263q-95 7 -237 7q-20 0 -20 -12q0 -13 1 -45q4 -119 31 -158q21 -30 76 -30q93 0 114 109q12 -13 34 -14q-27 -133 -182 -133q-113 0 -165 57
q-54 61 -54 199q0 253 216 253q99 0 142 -56t44 -177zM296 377q0 94 -63 94q-61 0 -61 -167q0 -9 6 -9q24 0 95 8q19 2 21 12t2 62z" />
    <glyph glyph-name="ecircumflex" unicode="&#xea;" horiz-adv-x="442" 
d="M359 521q-21 4 -42 4q-14 0 -37 -2q-18 30 -49 86l-1 10q-1 7 -4 7q-2 -1 -4 -4q-22 -37 -55 -100q-14 1 -16 1q-9 0 -22 -2q51 85 56 94q32 56 46 92q6 -2 11 -2t10 2q12 -30 107 -186zM427 263q-95 7 -237 7q-20 0 -20 -12q0 -13 1 -45q4 -119 31 -158q21 -30 76 -30
q93 0 114 109q12 -13 34 -14q-27 -133 -182 -133q-113 0 -165 57q-54 61 -54 199q0 253 216 253q99 0 142 -56t44 -177zM296 377q0 94 -63 94q-61 0 -61 -167q0 -9 6 -9q24 0 95 8q19 2 21 12t2 62z" />
    <glyph glyph-name="edieresis" unicode="&#xeb;" horiz-adv-x="442" 
d="M364 616q0 -25 -15.5 -38.5t-36.5 -13.5t-36 13.5t-15 38.5t15 39t36 14t36.5 -14t15.5 -39zM202 616q0 -25 -15.5 -38.5t-36.5 -13.5t-36 13.5t-15 38.5t15 39t36 14t36.5 -14t15.5 -39zM427 263q-95 7 -237 7q-20 0 -20 -12q0 -13 1 -45q4 -119 31 -158q21 -30 76 -30
q93 0 114 109q12 -13 34 -14q-27 -133 -182 -133q-113 0 -165 57q-54 61 -54 199q0 253 216 253q99 0 142 -56t44 -177zM296 377q0 94 -63 94q-61 0 -61 -167q0 -9 6 -9q24 0 95 8q19 2 21 12t2 62z" />
    <glyph glyph-name="igrave" unicode="&#xec;" horiz-adv-x="278" 
d="M165 524q-13 2 -20 2q-8 0 -16 -2q-36 67 -95 119q-28 24 -28 44q0 19 51 19q30 0 42.5 -6.5t18.5 -31.5q10 -43 47 -144zM268 -1q-71 7 -135 7q-58 0 -123 -6q3 13 3 19q0 7 -3 17q20 -6 35 -6q20 0 21 24q5 111 5 195q0 85 -5 190q-1 19 -18 19q-14 0 -38 -3q3 10 3 16
q0 5 -3 18q45 -4 87 -4q56 0 119 6q-5 -136 -5 -249q0 -102 4 -188q1 -23 16 -23q9 0 37 5q-3 -12 -3 -19q0 -6 3 -18z" />
    <glyph glyph-name="iacute" unicode="&#xed;" horiz-adv-x="278" 
d="M267 687q0 -19 -29 -44q-59 -52 -95 -119q-8 2 -16 2q-7 0 -18 -2q37 108 45 144q6 25 20 32q11 6 41 6q52 0 52 -19zM268 -1q-71 7 -135 7q-58 0 -123 -6q3 13 3 19q0 7 -3 17q20 -6 35 -6q20 0 21 24q5 111 5 195q0 85 -5 190q-1 19 -18 19q-14 0 -38 -3q3 10 3 16
q0 5 -3 18q45 -4 87 -4q56 0 119 6q-5 -136 -5 -249q0 -102 4 -188q1 -23 16 -23q9 0 37 5q-3 -12 -3 -19q0 -6 3 -18z" />
    <glyph glyph-name="icircumflex" unicode="&#xee;" horiz-adv-x="278" 
d="M251 521q-21 4 -42 4q-14 0 -37 -2q-18 30 -49 86l-1 10q-1 7 -4 7q-2 -1 -4 -4q-22 -37 -55 -100q-14 1 -16 1q-9 0 -22 -2q51 85 56 94q32 56 46 92q6 -2 11 -2t10 2q12 -30 107 -186zM268 -1q-71 7 -135 7q-58 0 -123 -6q3 13 3 19q0 7 -3 17q20 -6 35 -6q20 0 21 24
q5 111 5 195q0 85 -5 190q-1 19 -18 19q-14 0 -38 -3q3 10 3 16q0 5 -3 18q45 -4 87 -4q56 0 119 6q-5 -136 -5 -249q0 -102 4 -188q1 -23 16 -23q9 0 37 5q-3 -12 -3 -19q0 -6 3 -18z" />
    <glyph glyph-name="idieresis" unicode="&#xef;" horiz-adv-x="278" 
d="M269 616q0 -25 -15.5 -38.5t-36.5 -13.5t-36 13.5t-15 38.5t15 39t36 14t36.5 -14t15.5 -39zM107 616q0 -25 -15.5 -38.5t-36.5 -13.5t-36 13.5t-15 38.5t15 39t36 14t36.5 -14t15.5 -39zM268 -1q-71 7 -135 7q-58 0 -123 -6q3 13 3 19q0 7 -3 17q20 -6 35 -6q20 0 21 24
q5 111 5 195q0 85 -5 190q-1 19 -18 19q-14 0 -38 -3q3 10 3 16q0 5 -3 18q45 -4 87 -4q56 0 119 6q-5 -136 -5 -249q0 -102 4 -188q1 -23 16 -23q9 0 37 5q-3 -12 -3 -19q0 -6 3 -18z" />
    <glyph glyph-name="eth" unicode="&#xf0;" horiz-adv-x="489" 
d="M474 283q0 -292 -229 -292q-108 0 -169 68t-61 183q0 140 63 203q55 56 168 56q40 0 65 -25q1 -1 4.5 -7.5t4.5 -6.5q2 0 2 11q0 41 -33 110q-3 7 -4 7q-18 0 -123 -52q-2 21 -16 41q70 14 120 34q8 3 8 4q0 2 -2 4q-17 34 -27 47q-17 23 -42 32q13 13 15 27
q68 -33 115 -80q4 -5 6 -5q-1 0 7 2q47 19 81 37q0 -25 14 -42q-44 -8 -73 -19q-3 -1 -4 -7q110 -151 110 -330zM330 245q0 138 -20 186q-18 42 -66 42t-64 -40q-19 -47 -19 -194q0 -139 18 -182q17 -38 67 -38q47 0 64 38q20 47 20 188z" />
    <glyph glyph-name="ntilde" unicode="&#xf1;" horiz-adv-x="538" 
d="M381 661q-23 -56 -37 -76q-19 -25 -47 -25q-23 0 -64 19.5t-58 19.5q-24 0 -43 -42q-8 9 -22 11q19 52 32 71q20 29 49 29q21 0 62.5 -21t55.5 -21q25 0 51 47q9 -9 21 -12zM528 -1q-71 7 -138 7q-62 0 -108 -7q3 7 3 17q0 11 -3 20q21 -6 30 -6q14 0 15 14q4 74 4 180
q0 123 -6 173q-5 43 -44 43t-54 -40q-19 -49 -19 -194q0 -154 6 -169q3 -7 15 -7q13 0 34 6q-3 -8 -3 -18q0 -11 3 -19q-46 7 -114 7q-70 0 -139 -7q4 7 4 18t-4 19q29 -7 36 -7q19 0 20 16q4 81 4 191q0 113 -4 199q-1 19 -12 19q3 0 -43 -5q3 8 3 16q0 7 -3 19
q49 -3 59 -3q53 0 136 7q-5 -74 -5 -62q0 -13 1 -18q-1 0 3 -1q1 0 2 3q12 42 50 65q34 21 81 21q137 0 137 -166v-77q-1 -52 -1 -77q0 -77 3 -135q1 -13 18 -13q11 0 33 7q-3 -7 -3 -19q0 -11 3 -17z" />
    <glyph glyph-name="ograve" unicode="&#xf2;" horiz-adv-x="480" 
d="M257 524q-13 2 -20 2q-8 0 -16 -2q-36 67 -95 119q-28 24 -28 44q0 19 51 19q30 0 42.5 -6.5t18.5 -31.5q10 -43 47 -144zM455 241q0 -138 -57 -199q-51 -55 -158 -55q-113 0 -164 58t-51 193q0 134 53 196t168 62q111 0 160 -60.5t49 -194.5zM313 240q0 144 -17 192
q-14 37 -50 37q-41 0 -56 -34q-22 -49 -22 -200q0 -136 18 -185q15 -38 51 -38q39 0 55 36q21 50 21 192z" />
    <glyph glyph-name="oacute" unicode="&#xf3;" horiz-adv-x="480" 
d="M378 687q0 -19 -29 -44q-59 -52 -95 -119q-8 2 -16 2q-7 0 -18 -2q37 108 45 144q6 25 20 32q11 6 41 6q52 0 52 -19zM455 241q0 -138 -57 -199q-51 -55 -158 -55q-113 0 -164 58t-51 193q0 134 53 196t168 62q111 0 160 -60.5t49 -194.5zM313 240q0 144 -17 192
q-14 37 -50 37q-41 0 -56 -34q-22 -49 -22 -200q0 -136 18 -185q15 -38 51 -38q39 0 55 36q21 50 21 192z" />
    <glyph glyph-name="ocircumflex" unicode="&#xf4;" horiz-adv-x="480" 
d="M364 521q-21 4 -42 4q-14 0 -37 -2q-18 30 -49 86l-1 10q-1 7 -4 7q-2 -1 -4 -4q-22 -37 -55 -100q-14 1 -16 1q-9 0 -22 -2q51 85 56 94q32 56 46 92q6 -2 11 -2t10 2q12 -30 107 -186zM455 241q0 -138 -57 -199q-51 -55 -158 -55q-113 0 -164 58t-51 193q0 134 53 196
t168 62q111 0 160 -60.5t49 -194.5zM313 240q0 144 -17 192q-14 37 -50 37q-41 0 -56 -34q-22 -49 -22 -200q0 -136 18 -185q15 -38 51 -38q39 0 55 36q21 50 21 192z" />
    <glyph glyph-name="otilde" unicode="&#xf5;" horiz-adv-x="480" 
d="M378 661q-23 -56 -37 -76q-19 -25 -47 -25q-23 0 -64 19.5t-58 19.5q-24 0 -43 -42q-8 9 -22 11q19 52 32 71q20 29 49 29q21 0 62.5 -21t55.5 -21q25 0 51 47q9 -9 21 -12zM455 241q0 -138 -57 -199q-51 -55 -158 -55q-113 0 -164 58t-51 193q0 134 53 196t168 62
q111 0 160 -60.5t49 -194.5zM313 240q0 144 -17 192q-14 37 -50 37q-41 0 -56 -34q-22 -49 -22 -200q0 -136 18 -185q15 -38 51 -38q39 0 55 36q21 50 21 192z" />
    <glyph glyph-name="odieresis" unicode="&#xf6;" horiz-adv-x="480" 
d="M378 628q0 -25 -15.5 -38.5t-36.5 -13.5t-36 13.5t-15 38.5t15 39t36 14t36.5 -14t15.5 -39zM216 628q0 -25 -15.5 -38.5t-36.5 -13.5t-36 13.5t-15 38.5t15 39t36 14t36.5 -14t15.5 -39zM455 241q0 -138 -57 -199q-51 -55 -158 -55q-113 0 -164 58t-51 193q0 134 53 196
t168 62q111 0 160 -60.5t49 -194.5zM313 240q0 144 -17 192q-14 37 -50 37q-41 0 -56 -34q-22 -49 -22 -200q0 -136 18 -185q15 -38 51 -38q39 0 55 36q21 50 21 192z" />
    <glyph glyph-name="divide" unicode="&#xf7;" horiz-adv-x="527" 
d="M311 416q0 -19 -13 -31.5t-32 -12.5t-32 12.5t-13 30.5q0 19 13 32t32 13t32 -13t13 -31zM510 261q-94 6 -238 6q-121 0 -255 -5q4 17 4 28q0 12 -4 31q100 -5 255 -5q144 0 238 6q-4 -17 -4 -29q0 7 4 -32zM311 165q0 -19 -13 -32t-32 -13t-32 13t-13 31q0 19 13 31.5
t32 12.5t32 -12.5t13 -30.5z" />
    <glyph glyph-name="oslash" unicode="&#xf8;" horiz-adv-x="480" 
d="M445 243q0 -123 -61 -188q-56 -61 -150 -61q-76 0 -123 39q-6 5 -10 5t-7 -5q-13 -17 -33 -45q-10 19 -28 29q12 14 36 41q7 8 7 12t-5 10q-46 59 -46 160q0 106 46 171q40 57 108 75q30 8 62 8q79 0 125 -42l8 -8q2 0 7 7q13 18 36 49q7 -24 26 -28q-12 -16 -37 -45
q-4 -5 -4 -9q0 -2 4 -8q39 -54 39 -167zM314 380q0 17 -9 42t-22 36t-43 11q-32 0 -48 -13q-44 -35 -44 -219q0 -12 1 -34v-30q0 -3 -1 -8.5t-1 -8.5q0 -4 1 -4q2 1 4 4.5t8 13.5q95 118 145 183q9 12 9 27zM324 322q0 4 -3 6l-6 -12q-49 -61 -146 -185q-11 -14 -11 -27
q0 -16 9.5 -38.5t21.5 -32.5q17 -15 43 -15q33 0 50 20q41 48 41 204v24q-1 15 -1 23q0 6 1 17t1 16z" />
    <glyph glyph-name="ugrave" unicode="&#xf9;" horiz-adv-x="547" 
d="M276 524q-13 2 -20 2q-8 0 -16 -2q-36 67 -95 119q-28 24 -28 44q0 19 51 19q30 0 42.5 -6.5t18.5 -31.5q10 -43 47 -144zM537 -1q-37 4 -79 4q-65 0 -138 -8q2 19 8 43q4 20 4 21q0 5 -3 6q-3 0 -5 -3q-3 -7 -11 -21q-39 -49 -120 -49q-72 0 -103.5 35.5t-31.5 125.5
q0 27 1 80v79q0 85 -3 128q-1 13 -13 13q-9 0 -33 -6q3 9 3 19q0 9 -3 18q57 -6 123 -6q29 0 74 2q-4 -82 -4 -166v-52q-1 -37 -1 -57q0 -106 12 -137q8 -22 34 -22q30 0 54 34q34 50 34 158v25q-1 15 -1 20q0 44 -5 150q-1 21 -18 21q2 0 -37 -7q3 12 3 19q0 6 -3 18
q49 -6 105 -6q43 0 98 4q-5 -170 -5 -235q0 -111 4 -198q1 -21 20 -21q1 0 40 7q-3 -7 -3 -17q0 -11 3 -19z" />
    <glyph glyph-name="uacute" unicode="&#xfa;" horiz-adv-x="547" 
d="M359 687q0 -19 -29 -44q-59 -52 -95 -119q-8 2 -16 2q-7 0 -18 -2q37 108 45 144q6 25 20 32q11 6 41 6q52 0 52 -19zM537 -1q-37 4 -79 4q-65 0 -138 -8q2 19 8 43q4 20 4 21q0 5 -3 6q-3 0 -5 -3q-3 -7 -11 -21q-39 -49 -120 -49q-72 0 -103.5 35.5t-31.5 125.5
q0 27 1 80v79q0 85 -3 128q-1 13 -13 13q-9 0 -33 -6q3 9 3 19q0 9 -3 18q57 -6 123 -6q29 0 74 2q-4 -82 -4 -166v-52q-1 -37 -1 -57q0 -106 12 -137q8 -22 34 -22q30 0 54 34q34 50 34 158v25q-1 15 -1 20q0 44 -5 150q-1 21 -18 21q2 0 -37 -7q3 12 3 19q0 6 -3 18
q49 -6 105 -6q43 0 98 4q-5 -170 -5 -235q0 -111 4 -198q1 -21 20 -21q1 0 40 7q-3 -7 -3 -17q0 -11 3 -19z" />
    <glyph glyph-name="ucircumflex" unicode="&#xfb;" horiz-adv-x="547" 
d="M389 521q-21 4 -42 4q-14 0 -37 -2q-18 30 -49 86l-1 10q-1 7 -4 7q-2 -1 -4 -4q-22 -37 -55 -100q-14 1 -16 1q-9 0 -22 -2q51 85 56 94q32 56 46 92q6 -2 11 -2t10 2q12 -30 107 -186zM537 -1q-37 4 -79 4q-65 0 -138 -8q2 19 8 43q4 20 4 21q0 5 -3 6q-3 0 -5 -3
q-3 -7 -11 -21q-39 -49 -120 -49q-72 0 -103.5 35.5t-31.5 125.5q0 27 1 80v79q0 85 -3 128q-1 13 -13 13q-9 0 -33 -6q3 9 3 19q0 9 -3 18q57 -6 123 -6q29 0 74 2q-4 -82 -4 -166v-52q-1 -37 -1 -57q0 -106 12 -137q8 -22 34 -22q30 0 54 34q34 50 34 158v25q-1 15 -1 20
q0 44 -5 150q-1 21 -18 21q2 0 -37 -7q3 12 3 19q0 6 -3 18q49 -6 105 -6q43 0 98 4q-5 -170 -5 -235q0 -111 4 -198q1 -21 20 -21q1 0 40 7q-3 -7 -3 -17q0 -11 3 -19z" />
    <glyph glyph-name="udieresis" unicode="&#xfc;" horiz-adv-x="547" 
d="M397 628q0 -25 -15.5 -38.5t-36.5 -13.5t-36 13.5t-15 38.5t15 39t36 14t36.5 -14t15.5 -39zM235 628q0 -25 -15.5 -38.5t-36.5 -13.5t-36 13.5t-15 38.5t15 39t36 14t36.5 -14t15.5 -39zM537 -1q-37 4 -79 4q-65 0 -138 -8q2 19 8 43q4 20 4 21q0 5 -3 6q-3 0 -5 -3
q-3 -7 -11 -21q-39 -49 -120 -49q-72 0 -103.5 35.5t-31.5 125.5q0 27 1 80v79q0 85 -3 128q-1 13 -13 13q-9 0 -33 -6q3 9 3 19q0 9 -3 18q57 -6 123 -6q29 0 74 2q-4 -82 -4 -166v-52q-1 -37 -1 -57q0 -106 12 -137q8 -22 34 -22q30 0 54 34q34 50 34 158v25q-1 15 -1 20
q0 44 -5 150q-1 21 -18 21q2 0 -37 -7q3 12 3 19q0 6 -3 18q49 -6 105 -6q43 0 98 4q-5 -170 -5 -235q0 -111 4 -198q1 -21 20 -21q1 0 40 7q-3 -7 -3 -17q0 -11 3 -19z" />
    <glyph glyph-name="yacute" unicode="&#xfd;" horiz-adv-x="500" 
d="M374 687q0 -19 -29 -44q-59 -52 -95 -119q-8 2 -14 2h-3q-6 0 -17 -2q37 108 45 144q6 25 20 32q11 6 41 6q52 0 52 -19zM489 449q-16 4 -27 4q-18 0 -25 -12q-15 -25 -48 -115q-30 -80 -39 -112q-27 -73 -87 -267q-21 -79 -36 -107q-32 -58 -89 -58q-45 0 -70 23
q-21 21 -21 52q0 29 19 51t49 22q26 0 42 -19q19 -22 19 -63q0 -16 8 -16q6 0 14 16q15 30 38 123q3 12 3 27q0 25 -7 44q-49 130 -86 214q-42 92 -85 185q-6 12 -17 12q-7 0 -34 -6q3 8 3 17q0 10 -3 20q73 -7 151 -7q73 0 123 7q-3 -9 -3 -20q0 -10 3 -17q-37 6 -39 6
q-12 0 -12 -6q0 -16 32 -96q11 -27 41 -96q8 -17 9 -40q0 -6 2 -6q4 0 6 11t5 25q15 48 29 97q20 67 20 94q0 18 -18 18q-12 0 -32 -4q3 5 3 17t-3 17q37 -4 85 -4q44 0 76 4q-2 -6 -2 -15q0 -12 3 -20z" />
    <glyph glyph-name="thorn" unicode="&#xfe;" horiz-adv-x="513" 
d="M490 241q0 -138 -38 -194.5t-130 -56.5q-91 0 -113 48q-2 6 -6 12q-3 0 -3 -4q0 -1 2 -11.5t2 -12.5q0 -96 7 -200q1 -12 4 -14.5t16 -2.5q7 0 31 3q-3 -12 -3 -18t3 -18q-39 6 -123 6q-68 0 -127 -6q3 11 3 17t-3 19q27 -3 32 -3q20 0 20 16q1 68 1 179q0 381 -8 660
q-1 18 -17 18q-8 0 -28 -4q2 7 2 18q0 10 -2 15q38 -2 68 -2q66 0 133 7q-2 -29 -4 -73q-2 -27 -4 -181q0 -6 -2.5 -17.5t-2.5 -16.5t4 -5q1 0 10 16.5t12 20.5q39 40 104 40q87 0 122 -51q38 -56 38 -204zM349 231q0 155 -16 197q-10 29 -48 29q-80 0 -80 -248
q0 -180 81 -179q36 0 48 32q15 40 15 169z" />
    <glyph glyph-name="ydieresis" unicode="&#xff;" horiz-adv-x="499" 
d="M388 616q0 -25 -15.5 -38.5t-36.5 -13.5t-36 13.5t-15 38.5t15 39t36 14t36.5 -14t15.5 -39zM226 616q0 -25 -15.5 -38.5t-36.5 -13.5t-36 13.5t-15 38.5t15 39t36 14t36.5 -14t15.5 -39zM489 449q-16 4 -27 4q-18 0 -25 -12q-15 -25 -48 -115q-30 -80 -39 -112
q-27 -73 -87 -267q-21 -79 -36 -107q-32 -58 -89 -58q-45 0 -70 23q-21 21 -21 52q0 29 19 51t49 22q26 0 42 -19q19 -22 19 -63q0 -16 8 -16q6 0 14 16q15 30 38 123q3 12 3 27q0 25 -7 44q-49 130 -86 214q-42 92 -85 185q-6 12 -17 12q-7 0 -34 -6q3 8 3 17q0 10 -3 20
q73 -7 151 -7q73 0 123 7q-3 -9 -3 -20q0 -10 3 -17q-37 6 -39 6q-12 0 -12 -6q0 -16 32 -96q11 -27 41 -96q8 -17 9 -40q0 -6 2 -6q4 0 6 11t5 25q15 48 29 97q20 67 20 94q0 18 -18 18q-12 0 -32 -4q3 5 3 17t-3 17q37 -4 85 -4q44 0 76 4q-2 -6 -2 -15q0 -12 3 -20z" />
    <glyph glyph-name="OE" unicode="&#x152;" horiz-adv-x="961" 
d="M935 251q-10 -104 -10 -182q0 -32 4 -69q-108 4 -236 4q-84 0 -203 -2q-25 0 -76 -6.5t-77 -6.5q-139 0 -220.5 97.5t-81.5 264.5q0 169 82.5 267t220.5 98q27 0 79.5 -6t77.5 -7q42 -1 95 -1q49 0 151.5 2t159.5 2q-5 -49 -5 -77q0 -70 11 -150q-5 0 -9 1h-5
q-3 0 -15 -3q-16 121 -73 163q-45 33 -150 33q-25 0 -30.5 -4t-6.5 -22q-7 -127 -7 -245q0 -19 3 -23t17 -4q71 0 96.5 33.5t25.5 121.5q9 -3 18 -3q8 0 16 2q-9 -107 -9 -183q0 -81 9 -162q-9 3 -18 3q-8 0 -16 -2q0 100 -26 132q-24 29 -96 29q-14 0 -17 -4t-3 -23
q0 -120 7 -257q1 -20 9 -24t49 -4h14q107 0 159 50.5t54 165.5q9 -3 14 -3q6 0 18 4zM460 336q0 159 -10 232t-36 98q-22 22 -73 22q-82 0 -113 -59q-35 -70 -35 -272t36 -276q31 -63 109 -63q69 0 93 55q29 65 29 263z" />
    <glyph glyph-name="oe" unicode="&#x153;" horiz-adv-x="730" 
d="M715 263q-95 7 -238 7q-18 0 -19 -12q0 -147 28 -193q20 -34 80 -34q93 0 114 106q12 -12 34 -14q-27 -133 -182 -133q-107 0 -143 39q-2 3 -5.5 11.5t-5.5 8.5q-3 0 -8 -9t-6 -10q-38 -40 -124 -40q-113 0 -164 57.5t-51 192.5q0 134 52.5 195t168.5 61q51 0 89 -15
q33 -13 42 -33q3 -6 7 -10q2 1 7 8q9 21 53 36q41 14 85 14q99 0 142 -56t44 -177zM574 377q0 92 -53 92q-61 0 -61 -165q0 -9 6 -9q-12 0 86 10q16 2 19 12t3 60zM313 242q0 144 -17 191q-14 36 -50 36q-41 0 -56 -33q-22 -48 -22 -199q0 -136 18 -184q15 -38 51 -38
q39 0 55 36q21 49 21 191z" />
    <glyph glyph-name="Scaron" unicode="&#x160;" horiz-adv-x="529" 
d="M359 918q-56 -96 -91 -187q-4 2 -9 4q-2 0 -11 -3q-38 91 -98 186q23 -4 42 -4q15 0 38 2q11 -29 42 -98q1 -1 2 -3q1 2 6 9q23 37 41 93q19 -3 17 -3q3 0 21 4zM503 210q0 -223 -272 -223q-98 0 -199 48q3 25 3 61q0 69 -11 147q7 -3 17 -3q8 0 14 2q31 -219 196 -219
q138 0 138 129q0 75 -92 123q-85 40 -171 80q-92 58 -92 161q0 92 55 144q61 59 185 59q100 0 176 -45q-6 -40 -6 -103q0 -32 2 -58h-14q-5 0 -17 -2q-5 82 -47.5 129.5t-105.5 47.5q-123 0 -123 -117q0 -67 113 -116q56 -24 113 -49q64 -32 97 -72q41 -51 41 -124z" />
    <glyph glyph-name="scaron" unicode="&#x161;" horiz-adv-x="394" 
d="M289 708q-56 -96 -91 -187q-4 2 -9 4q-2 0 -11 -3q-38 91 -98 186q23 -4 42 -4q15 0 38 2q11 -29 42 -98q1 -1 2 -3q1 2 6 9q23 37 41 93q19 -3 17 -3q3 0 21 4zM375 155q0 -165 -183 -165q-96 0 -173 33q4 25 4 44q0 16 -9 122q5 -2 15 -2t15 2q4 -65 42 -113
q42 -54 104 -54q37 0 58 21.5t21 56.5q0 49 -64 76q-59 25 -119 50q-64 39 -64 114q0 72 47.5 113.5t128.5 41.5q85 0 148 -29q-10 -47 -10 -89q0 -23 4 -48q-8 2 -15 2q-5 0 -10 -1q-7 46 -34 85q-36 51 -86 51q-71 0 -71 -71q0 -44 65 -71q120 -52 121 -53q65 -41 65 -116
z" />
    <glyph glyph-name="Ydieresis" unicode="&#x178;" horiz-adv-x="570" 
d="M423 821q0 -25 -15.5 -38.5t-36.5 -13.5t-36 13.5t-15 38.5t15 39t36 14t36.5 -14t15.5 -39zM261 821q0 -25 -15.5 -38.5t-36.5 -13.5t-36 13.5t-15 38.5t15 39t36 14t36.5 -14t15.5 -39zM560 672q-30 4 -37 4q-10 0 -21 -18q-32 -54 -67 -134q-29 -69 -59 -138
q-10 -23 -10 -38v-43q0 -150 6 -253q1 -21 19 -21q7 0 42 4q-3 -8 -3 -16q0 -13 4 -20q-64 5 -137 5q-56 0 -143 -4q2 6 2 17t-2 18q22 -4 40 -4t19 18q3 93 3 175v62q-1 42 -1 62t-8 36l-102 200q-34 65 -43 78t-21 13q-1 0 -31 -3q3 8 3 17q0 8 -3 17q62 -3 136 -3
q79 0 138 3q-3 -5 -3 -15q0 -11 3 -19q-7 1 -13 1q-12 1 -20 1q-23 0 -23 -8q0 -9 15 -36q20 -35 21 -37q8 -17 75 -156q2 -8 5 -17q3 -12 7 -12q2 0 3.5 5.5t8.5 24.5q75 177 75 222q0 15 -18 15q-12 0 -32 -4q2 10 2 18t-2 18q45 -4 78 -4q53 0 94 3q-2 -10 -2 -18t2 -16z
" />
    <glyph glyph-name="Zcaron" unicode="&#x17d;" horiz-adv-x="569" 
d="M379 918q-56 -96 -91 -187q-4 2 -9 4q-2 0 -11 -3q-38 91 -98 186q23 -4 42 -4q15 0 38 2q11 -29 42 -98q1 -1 2 -3q1 2 6 9q23 37 41 93q19 -3 17 -3q3 0 21 4zM536 0q-116 3 -263 3q-164 0 -260 -3q-1 11 -5 18q21 18 41 54q47 86 129 266q99 219 131 283l21 43
q0 7 -36 7h-14q-95 0 -140 -39q-50 -44 -50 -149q-8 2 -17 2q-8 0 -16 -2q6 51 6 117q0 60 -6 106q87 -4 231 -4q107 0 223 4q0 -9 6 -17q-9 -13 -28 -43q-51 -94 -137 -288q-104 -235 -128 -285q-19 -39 -19 -36q0 -6 14 -6h21q130 0 190 45q70 53 74 185q9 -2 16 -2t15 2
q-6 -74 -6 -138q0 -61 7 -123z" />
    <glyph glyph-name="zcaron" unicode="&#x17e;" horiz-adv-x="414" 
d="M309 708q-56 -96 -91 -187q-4 2 -9 4q-2 0 -11 -3q-38 91 -98 186q23 -4 42 -4q15 0 38 2q11 -29 42 -98q1 -1 2 -3q1 2 6 9q23 37 41 93q19 -3 17 -3q3 0 21 4zM399 194q-4 -45 -4 -93q0 -57 3 -101q-83 3 -192 3q-117 0 -189 -3q-3 12 -7 16q11 16 32 49
q75 132 114 218q63 139 74 161l7 8q-2 3 -6 3q-57 0 -80 -6q-27 -6 -47 -28q-29 -31 -30 -111q-12 3 -31 3q3 31 3 81q0 51 -3 89q80 -3 182 -3t168 3q0 -5 4 -16q-56 -86 -117 -220q-29 -67 -92 -201q-2 -5 -6 -8.5t-4 -6.5q0 -2 6 -2q3 0 7 1h5q54 0 72 3q40 6 64 28
q33 31 36 132q7 -2 13 -2q8 0 18 3z" />
    <glyph glyph-name="florin" unicode="&#x192;" horiz-adv-x="446" 
d="M451 608q0 -30 -18 -47t-41 -17q-22 0 -36 14q-17 15 -17 41q0 22 12 40q10 15 10 25q0 12 -22 12q-27 0 -36 -49q-4 -41 -15 -136q-1 -3 -1 -7q0 -5 7 -5q44 0 80 3q-3 -10 -3 -24q0 -7 1 -12q-51 4 -81 4q-7 0 -8 -11q-12 -154 -21 -217q-17 -123 -48.5 -211
t-85 -139.5t-107.5 -51.5t-84 29q-26 26 -26 63q0 29 16.5 49.5t43.5 20.5q22 0 38.5 -16t16.5 -44q0 -10 -4 -29.5t-4 -28.5q0 -13 12 -13q38 0 57 63q4 13 18 94q12 71 28 260q4 53 16 171v7q0 4 -7 4q-28 0 -72 -4q4 10 4 22q0 7 -2 14q33 -3 73 -3q9 0 13 15
q28 112 85 168q40 39 109 39q47 0 75 -30q24 -27 24 -63z" />
    <glyph glyph-name="circumflex" unicode="&#x2c6;" 
d="M210 521q-21 4 -42 4q-14 0 -37 -2q-18 30 -49 86l-1 10q-1 7 -4 7q-2 -1 -4 -4q-22 -37 -55 -100q-14 1 -16 1q-9 0 -22 -2q51 85 56 94q32 56 46 92q6 -2 11 -2t10 2q12 -30 107 -186z" />
    <glyph glyph-name="tilde" unicode="&#x2dc;" 
d="M231 661q-23 -56 -37 -76q-19 -25 -47 -25q-23 0 -64 19.5t-58 19.5q-24 0 -43 -42q-8 9 -22 11q19 52 32 71q20 29 49 29q21 0 62.5 -21t55.5 -21q25 0 51 47q9 -9 21 -12z" />
    <glyph glyph-name="endash" unicode="&#x2013;" horiz-adv-x="425" 
d="M412 241q-64 2 -180 2q-144 0 -218 -2q4 13 4 25q0 11 -4 22q78 -2 214 -2q118 0 183 2q-3 -9 -3 -24t4 -23z" />
    <glyph glyph-name="emdash" unicode="&#x2014;" horiz-adv-x="594" 
d="M582 241q-129 3 -300 3q-196 0 -268 -3q4 10 4 23q0 14 -4 24q72 -2 265 -2q216 0 303 2q-2 -28 -2 -24q0 -4 2 -23z" />
    <glyph glyph-name="quoteleft" unicode="&#x2018;" horiz-adv-x="216" 
d="M196 460q0 -36 -25.5 -62t-65.5 -26q-36 0 -59 30q-26 35 -26 100q0 85 51 145q30 36 85 70q2 -14 18 -30q-110 -62 -110 -154q0 -7 6 -7q2 0 24 10q9 4 21 4q40 0 62 -26q19 -22 19 -54z" />
    <glyph glyph-name="quoteright" unicode="&#x2019;" horiz-adv-x="216" 
d="M196 587q0 -85 -51 -145q-30 -36 -85 -70q-2 14 -18 30q110 62 110 154q0 7 -6 7q-2 0 -24 -10q-9 -4 -21 -4q-40 0 -62 26q-19 22 -19 54q0 36 25.5 62t65.5 26q36 0 59 -30q26 -35 26 -100z" />
    <glyph glyph-name="quotesinglbase" unicode="&#x201a;" horiz-adv-x="227" 
d="M205 23q0 -85 -51 -145q-30 -36 -85 -70q-2 14 -18 30q110 62 110 154q0 7 -6 7q-2 0 -24 -10q-9 -4 -21 -4q-40 0 -62 26q-19 22 -19 54q0 36 25.5 62t65.5 26q36 0 59 -30q26 -35 26 -100z" />
    <glyph glyph-name="quotedblleft" unicode="&#x201c;" horiz-adv-x="426" 
d="M406 460q0 -36 -25.5 -62t-65.5 -26q-36 0 -59 30q-26 35 -26 100q0 85 51 145q30 36 85 70q2 -14 18 -30q-110 -62 -110 -154q0 -7 6 -7q2 0 24 10q9 4 21 4q40 0 62 -26q19 -22 19 -54zM196 460q0 -36 -25.5 -62t-65.5 -26q-36 0 -59 30q-26 35 -26 100q0 85 51 145
q30 36 85 70q2 -14 18 -30q-110 -62 -110 -154q0 -7 6 -7q2 0 24 10q9 4 21 4q40 0 62 -26q19 -22 19 -54z" />
    <glyph glyph-name="quotedblright" unicode="&#x201d;" horiz-adv-x="426" 
d="M406 587q0 -85 -51 -145q-30 -36 -85 -70q-2 14 -18 30q110 62 110 154q0 7 -6 7q-2 0 -24 -10q-9 -4 -21 -4q-40 0 -62 26q-19 22 -19 54q0 36 25.5 62t65.5 26q36 0 59 -30q26 -35 26 -100zM196 587q0 -85 -51 -145q-30 -36 -85 -70q-2 14 -18 30q110 62 110 154
q0 7 -6 7q-2 0 -24 -10q-9 -4 -21 -4q-40 0 -62 26q-19 22 -19 54q0 36 25.5 62t65.5 26q36 0 59 -30q26 -35 26 -100z" />
    <glyph glyph-name="quotedblbase" unicode="&#x201e;" horiz-adv-x="417" 
d="M400 23q0 -85 -51 -145q-30 -36 -85 -70q-2 14 -18 30q110 62 110 154q0 7 -6 7q-2 0 -24 -10q-9 -4 -21 -4q-40 0 -62 26q-19 22 -19 54q0 36 25.5 62t65.5 26q36 0 59 -30q26 -35 26 -100zM190 23q0 -85 -51 -145q-30 -36 -85 -70q-2 14 -18 30q110 62 110 154
q0 7 -6 7q-2 0 -24 -10q-9 -4 -21 -4q-40 0 -62 26q-19 22 -19 54q0 36 25.5 62t65.5 26q36 0 59 -30q26 -35 26 -100z" />
    <glyph glyph-name="dagger" unicode="&#x2020;" horiz-adv-x="416" 
d="M390 430q0 -21 -15.5 -38t-39.5 -17q-18 0 -53 18t-51 18q-4 0 -4 -13q0 -72 19.5 -215t19.5 -216q0 -51 -17.5 -81.5t-41.5 -30.5t-40 28t-16 76q0 73 19 219.5t19 219.5q0 13 -4 13q-11 0 -47.5 -18.5t-54.5 -18.5q-25 0 -41.5 17t-16.5 38t15.5 37t38.5 16
q19 0 56.5 -19t49.5 -19q3 0 3 8q0 1 -5 33q-3 16 -19 82q-14 52 -14 81q0 68 58 68t58 -68q0 -25 -14 -80q-17 -67 -20 -84q-5 -33 -5 -32q0 -7 3 -7q8 0 48 18.5t59 18.5q23 0 38 -15.5t15 -36.5z" />
    <glyph glyph-name="daggerdbl" unicode="&#x2021;" horiz-adv-x="392" 
d="M380 200q0 -21 -15.5 -36.5t-38.5 -15.5q-19 0 -56.5 18.5t-49.5 18.5q-3 0 -3 -8q0 -17 25 -147q13 -68 13 -93q0 -40 -17 -61t-41 -21t-41 21t-17 61q0 28 14 98q25 126 25 142q0 7 -3 7q-9 0 -47.5 -18t-59.5 -18q-23 0 -38 15.5t-15 35.5q0 21 15.5 38t39.5 17
q18 0 53.5 -18t51.5 -18q2 0 2 5q0 16 -8 46t-8 46q0 15 8.5 44.5t8.5 44.5q0 7 -3 7q-11 0 -47.5 -18.5t-54.5 -18.5q-25 0 -41.5 17t-16.5 38t15.5 37t38.5 16q19 0 56.5 -19t49.5 -19q3 0 3 8q0 21 -25 122q-13 53 -13 74q0 68 58 68t58 -68q0 -22 -14 -77
q-24 -94 -24 -119q0 -8 5 -8t44.5 19t59.5 19q23 0 38 -15.5t15 -36.5t-15.5 -38t-39.5 -17q-18 0 -53.5 18.5t-51.5 18.5q-2 0 -2 -6q0 -14 8.5 -44.5t8.5 -46.5t-9 -45.5t-9 -44.5q0 -7 3 -7q11 0 47.5 18.5t54.5 18.5q25 0 41.5 -17t16.5 -38z" />
    <glyph glyph-name="bullet" unicode="&#x2022;" horiz-adv-x="243" 
d="M230 350q0 -43 -27 -72q-29 -33 -80 -33t-80 33q-27 29 -27 72t27 72q29 33 80 33t80 -33q27 -29 27 -72z" />
    <glyph glyph-name="ellipsis" unicode="&#x2026;" horiz-adv-x="639" 
d="M613 72q0 -39 -24 -60.5t-57 -21.5t-55 20q-25 23 -25 62q0 38 25 61q22 20 55 20t56 -20q25 -23 25 -61zM400 72q0 -39 -24 -60.5t-57 -21.5t-55 20q-25 23 -25 62q0 38 25 61q22 20 55 20t56 -20q25 -23 25 -61zM187 72q0 -39 -24 -60.5t-57 -21.5t-55 20
q-25 23 -25 62q0 38 25 61q22 20 55 20t56 -20q25 -23 25 -61z" />
    <glyph glyph-name="perthousand" unicode="&#x2030;" horiz-adv-x="1024" 
d="M1009 195q0 -103 -47 -156q-42 -46 -109 -46q-63 0 -107 48q-51 56 -51 158q0 96 47 152q43 51 109 51q65 0 107 -47q51 -55 51 -160zM670 195q0 -103 -47 -156q-42 -46 -109 -46q-63 0 -107 48q-51 56 -51 158q0 96 47 152q43 51 109 51q65 0 107 -47q51 -55 51 -160z
M514 690q-159 -342 -296 -691q-14 4 -23 4q-11 0 -31 -5q135 289 297 691q12 -4 20 -4q10 0 33 5zM324 489q0 -103 -50 -157q-42 -45 -106 -45t-107 48q-51 55 -51 158q0 100 50 155q43 48 106 48t106 -45q52 -56 52 -162zM894 193q0 113 -12 152q-9 30 -32 30
q-22 0 -30 -31q-11 -38 -11 -145q0 -109 12 -148q9 -30 32 -30t31 28q10 34 10 144zM555 193q0 113 -12 152q-9 30 -32 30q-22 0 -30 -31q-11 -38 -11 -145q0 -109 12 -148q9 -30 32 -30t31 28q10 34 10 144zM209 487q0 113 -11 150q-9 31 -33 31q-22 0 -31 -30
q-10 -37 -10 -145t10 -146q10 -33 34 -33q21 0 30 28q11 37 11 145z" />
    <glyph glyph-name="guilsinglleft" unicode="&#x2039;" horiz-adv-x="203" 
d="M192 117q-17 -7 -28 -27q-17 28 -54 68q-35 33 -105 107q19 24 51 55q44 42 54 53q37 40 54 68q11 -20 28 -27q-44 -41 -55 -65.5t-11 -82.5t11 -83t55 -66z" />
    <glyph glyph-name="guilsinglright" unicode="&#x203a;" horiz-adv-x="203" 
d="M199 265q-36 -36 -105 -107q-39 -42 -54 -67q-13 20 -28 26q44 41 55 66.5t11 82.5t-11 81.5t-55 65.5q15 7 28 27q24 -41 106 -118q33 -31 53 -57z" />
    <glyph glyph-name="Euro" unicode="&#x20ac;" horiz-adv-x="500" 
d="M495 645q-35 -64 -52 -154q-12 6 -29 6q4 35 4 62q0 114 -71 114q-56 0 -84 -73q-22 -57 -31 -179q0 -1 -1 -4q0 -8 11 -8q41 0 185 5q-8 -17 -8 -31q0 -3 1 -8q-120 4 -180 4q-13 0 -14 -9q-3 -36 -3 -42q0 -10 13 -10q20 0 89 2q86 3 92 3q-8 -17 -8 -31q0 -3 1 -8
q-120 4 -173 4q-13 0 -13 -10q0 -140 28 -201q26 -56 84 -56q82 0 113 104q9 -3 20 -3q10 0 19 3q-15 -64 -59 -101t-109 -37q-90 0 -154 67q-72 76 -89 221q-1 12 -13 12q-14 0 -33 -1q-23 -1 -27 -1q8 21 8 30q0 3 -1 8q37 -3 51 -3q11 0 11 21q0 4 1 11v10q0 16 -11 16
q-5 0 -25 -1q-23 -1 -33 -1q7 19 7 27q0 6 -1 11q31 -4 56 -4q11 0 13 11q19 123 93 199t172 76q48 0 72 -7q36 -10 78 -44z" />
    <glyph glyph-name="trademark" unicode="&#x2122;" horiz-adv-x="518" 
d="M508 489q-22 2 -53 2q-26 0 -48 -2q2 6 2 8t-2 10q12 -2 14 -2q10 0 10 17q0 104 3 119q1 5 1 9v3q0 3 -3 3q-1 0 -5 -13q-21 -59 -52 -154h-30q-26 92 -52 149l-5 17q-3 0 -3 -4q0 -6 1 -37t4 -92q2 -16 15 -16q1 0 5 1h7q-2 -8 -2 -10q0 -5 2 -8q-20 2 -37 2
q-19 0 -37 -2q0 2 1 5v5q0 5 -1 8q4 -1 12 -1q12 0 13 34q1 43 1 65q0 17 -1 55q-1 28 -10 28q-1 0 -13 -2q2 8 2 9t-2 9h20q14 -1 21 -1q28 0 39 1q18 -71 47 -136q7 -23 5 -23q3 0 3.5 4t1.5 8q14 45 39 116q7 16 8 31q12 -2 33 -2q26 0 44 2q-1 -4 -1 -9q0 -6 1 -9
q-10 2 -12 2q-9 0 -9 -13q-2 -18 -2 -98q0 -50 2 -60.5t11 -10.5q7 0 12 1q-2 -6 -2 -10t2 -8zM229 650q-5 0 -15 -3q0 41 -35 41q-13 0 -14 -11.5t-1 -31.5v-19q0 -38 2 -88q1 -23 1 -25q2 -7 12 -7q7 0 12 1q-2 -6 -2 -9q0 -1 2 -9q-12 2 -50 2q-30 0 -56 -2q1 3 1 8
q0 6 -1 10q4 -1 11 -1q14 0 15 32q1 44 1 83q0 29 -1 54q-1 13 -14 13q-33 0 -37 -41q-2 1 -6.5 2t-6.5 1q3 18 3 39q0 10 -1 15q37 -4 94 -4q51 0 84 4q-1 -5 -1 -17q0 -22 3 -37z" />
    <glyph glyph-name="glyph223" 
 />
    </font>
</defs>
</svg>
